[bittorrent] Woolybooger And The Ragtime Drifters Benefit For MaryJane Bloodworth The Green Room Mableton, Georgia 2/6/2021 (Schoesp CCM4V'S FOB)

Automated Mailer noreply-bt.e at etree.org
Wed Feb 10 21:24:43 UTC 2021


Band:           Other
Torrent Name:   Woolybooger And The Ragtime Drifters Benefit For MaryJane Bloodworth The Green Room Mableton, Georgia 2/6/2021 (Schoesp CCM4V'S FOB)
Uploaded by:    zmanatl
DB Link:        
Details:        http://bt.etree.org/details.php?id=611914

Contact the seeder at http://db.etree.org/zmanatl

If the link to this show does not work, it was probably removed for
being non-trade-friendly.

Description / text file:
-------------------------
Woolybooger And The Ragtime Drifters
Benefit For MaryJane Bloodworth
The Green Room
Mableton, Georgia
2/6/2021

Source: Schoeps CCM4V'S>Lunatec V2>Sound Devices 722 (24/44.1)
FOB/DFC/KFC/ZFC/AARP 7' From Stage, 6' High
DSP: Sound Devices 722>Sound Forge 10.0>CD Wave>flac(16)
ID3 Tagged In Foobar 2000
Recorded By: Z-Man
Seeded By: Z-Man
A Team Dirty South Recording

Disc I 

01 Low Down Rambler
02 Shaken That Thing
03 Trouble In Mind
04 Workin' At The Carwash Blues
05 Nobody Knows You When You're Down And Out
06 Beat It On Down The Line
07 The Moon Is High
08 Ain't It A Shame
09 Death Don't Have No Mercy
10 In The Pines
11 The Monkey And The Engineer
12 Takin' My Mind Off You
13 Summertime

Gavin Heath Graves - Acoustic Guitar And Vocals
Jason Maynard - Acoustic Guitar 

wooly2021-12-06d01t01.flac:0326c2e376fea72b3c307f7c42d75865
wooly2021-12-06d01t02.flac:f88d9ab58977a2ad270c760ccf6689c4
wooly2021-12-06d01t03.flac:ddeaff6f1c02c747760355c9bdf1faf2
wooly2021-12-06d01t04.flac:720e850e7fdbf7d08693328f2396207c
wooly2021-12-06d01t05.flac:9948c6a5c7c41643ed80a0a7103c6ab3
wooly2021-12-06d01t06.flac:4328082157d6681543f6f74256a9eb17
wooly2021-12-06d01t07.flac:9c0f8ee31f8a870ef97a9e1a6215f4c8
wooly2021-12-06d01t08.flac:9ac31698b2413b754597cc4fd1e94e89
wooly2021-12-06d01t09.flac:6b1a154e53e2b78f250d4a8227504d7e
wooly2021-12-06d01t10.flac:6697368ed7f38a48ea3059d6c8cb2285
wooly2021-12-06d01t11.flac:0b40061cf46ba78a4ab662bbd37047dc
wooly2021-12-06d01t12.flac:52d64487b9b680b65e9a76ebfb6e03b0
wooly2021-12-06d01t13.flac:e63374c11174a926f9fb1d9095555d7c

length     expanded size    cdr  WAVE problems  fmt   ratio  filename
     6:27.27       68330348 B   ---   --   ---xx   flac  0.2293  wooly2021-12-06d01t01.flac
     3:49.50       40513244 B   ---   --   ---xx   flac  0.2470  wooly2021-12-06d01t02.flac
     4:27.11       47124716 B   ---   --   ---xx   flac  0.2328  wooly2021-12-06d01t03.flac
     4:39.47       49326188 B   ---   --   ---xx   flac  0.2489  wooly2021-12-06d01t04.flac
     5:55.60       62763164 B   ---   --   ---xx   flac  0.2430  wooly2021-12-06d01t05.flac
     5:32.25       58623644 B   ---   --   ---xx   flac  0.2446  wooly2021-12-06d01t06.flac
     1:30.71       16043036 B   ---   --   ---xx   flac  0.2496  wooly2021-12-06d01t07.flac
     5:48.18       61429580 B   ---   --   ---xx   flac  0.2388  wooly2021-12-06d01t08.flac
     4:02.02       42693548 B   ---   --   ---xx   flac  0.2342  wooly2021-12-06d01t09.flac
     4:49.41       51076076 B   ---   --   ---xx   flac  0.2295  wooly2021-12-06d01t10.flac
     4:13.08       44648060 B   ---   --   ---xx   flac  0.2342  wooly2021-12-06d01t11.flac
     4:36.17       48726428 B   ---   --   ---xx   flac  0.2389  wooly2021-12-06d01t12.flac
     4:10.73       44271740 B   ---   --   ---xx   flac  0.2322  wooly2021-12-06d01t13.flac
    60:03.00      635569772 B                            0.2380  (13 files)







More information about the bittorrent mailing list