[bittorrent] Greek Theatre 7-13 n 14 n 15-84 New 16 bit GEMS SBDs

Automated Mailer noreply-bt.e at etree.org
Wed Feb 10 16:50:48 UTC 2021


Band:           Grateful Dead
Torrent Name:   Greek Theatre 7-13 n 14 n 15-84 New 16 bit GEMS SBDs
Uploaded by:    other3
DB Link:        
Details:        http://bt.etree.org/details.php?id=611912

Contact the seeder at http://db.etree.org/other3

If the link to this show does not work, it was probably removed for
being non-trade-friendly.

Description / text file:
-------------------------
Grateful Dead
Friday July 13, 1984
Greek Theatre - Berkeley, CA
University Of California

Soundboard Cassette Masters
Sony D-6 Dolby C

Provided by ANON

Speed Corrections by Jason Chastain
Mastering by Jim Blackwood and Jamie Waddell
16bit by Charles Bandrofcheck

- full moon and Friday the 13th
- shooting star over stage during start of Dark Star
- first Dark Star since 12 31 1981, more than two and a half years, 167 shows, 
  and another wouldn't be played for 359 shows, more than five years until the famous Warlocks show on 10 9 1989
- Betamania source provides a few spots of tape flip and tape pause patching
- a "best of" radio show from this run debuted these tapes July 19, 2020 on Dead Air 91.3 FM KXCI Tucson
- https://spinitron.com/KXCI/pl/11283404/Dead-Air

24 bit/44.1 kHz FLAC -> dBpoweramp -> 16 bit/44.1 kHz WAV

16 bit/44.1 kHz WAV -> THL -> 16 bit/44.1 FLAC

Set One
01. Bertha ->
02. Greatest Story Ever Told
03. Dire Wolf
04. C C Rider
05. Loser
06. Cassidy
07. Dupree's Diamond Blues
08. Hell In A Bucket ->
09. Might As Well

Set Two
10. Scarlet Begonias ->
11. Touch Of Grey ->
12. Fire On The Mountain ->
13. Man Smart (Woman Smarter) ->
14. Drums ->
15. Space ->
16. The Wheel ->
17. I Need A Miracle ->
18. Stella Blue ->
19. Sugar Magnolia

Encore:
20. Dark Star

"“Yes, I absolutely did see the shooting star at the song’s intro. It whistled through the sky and disappeared behind the eucalyptus trees lining the Greek. MANY people saw it, and it took our breath away (a serious murmur went through the crowd). There’s no way Jerry could have set THAT up!”"
Glide Magazine July 8, 2009
https://glidemagazine.com/142656/dark-star-stories-the-greek-07131984/


    length     expanded size    cdr  WAVE problems  fmt   ratio  filename
     6:39.70       70548284 B   ---   --   ---xx   flac  0.5848  GD1984-07-13.01.flac
     3:52.64       41075372 B   ---   --   ---xx   flac  0.5892  GD1984-07-13.02.flac
     3:26.12       36366668 B   ---   --   ---xx   flac  0.6156  GD1984-07-13.03.flac
     8:43.39       92348972 B   ---   --   ---xx   flac  0.6087  GD1984-07-13.04.flac
     7:01.24       74320892 B   ---   --   ---xx   flac  0.5920  GD1984-07-13.05.flac
     6:02.25       63915644 B   ---   --   ---xx   flac  0.6111  GD1984-07-13.06.flac
     7:25.14       78530972 B   ---   --   ---xx   flac  0.6000  GD1984-07-13.07.flac
     7:32.35       79815164 B   ---   --   ---xx   flac  0.6362  GD1984-07-13.08.flac
     4:31.60       47945564 B   ---   --   ---xx   flac  0.6282  GD1984-07-13.09.flac
    12:09.00      128595644 B   ---   --   ---xx   flac  0.6068  GD1984-07-13.10.flac
     7:07.09       75344012 B   ---   --   ---xx   flac  0.6437  GD1984-07-13.11.flac
    11:40.55      123609404 B   ---   --   ---xx   flac  0.5887  GD1984-07-13.12.flac
     7:04.05       74805404 B   ---   --   ---xx   flac  0.6177  GD1984-07-13.13.flac
     8:17.34       87750812 B   ---   --   ---xx   flac  0.4954  GD1984-07-13.14.flac
     7:02.30       74511404 B   ---   --   ---xx   flac  0.5164  GD1984-07-13.15.flac
     6:01.30       63751004 B   ---   --   ---xx   flac  0.5939  GD1984-07-13.16.flac
     3:56.50       41748044 B   ---   --   ---xx   flac  0.6315  GD1984-07-13.17.flac
     8:36.43       91123580 B   ---   --   ---xx   flac  0.5656  GD1984-07-13.18.flac
    10:02.29      106261052 B   ---   --   ---xx   flac  0.6256  GD1984-07-13.19.flac
    16:22.25      173283644 B   ---   --   ---xx   flac  0.6047  GD1984-07-13.20.flac
   153:35.53     1625651536 B                            0.5964  (20 files)


Grateful Dead
Saturday July 14, 1984
Greek Theatre - Berkeley, CA
University Of California

Soundboard Cassette Masters
Sony D-6 Dolby C

Provided by ANON

Speed Corrections by Jason Chastain
Mastering by Jim Blackwood and Jamie Waddell
16bit by Charles Bandrofcheck

- Matthew Kelly plays harmonica on Little Red Rooster
- Betamania source provides a few spots of tape flip and tape pause patching
- a "best of" radio show from this run debuted these tapes July 19, 2020 on Dead Air 91.3 FM KXCI Tucson
- https://spinitron.com/KXCI/pl/11283404/Dead-Air

24 bit/44.1 kHz FLAC -> dBpoweramp -> 16 bit/44.1 kHz WAV

16 bit/44.1 kHz WAV -> THL -> 16 bit/44.1 FLAC

Set One
01. Tuning
02. Jack Straw
03. West L.A. Fadeaway
04. Little Red Rooster
05. Tennessee Jed
06. Beat It On Down The Line
07. Big Railroad Blues ->
08. Looks Like Rain ->
09. Don't Ease Me In

Set Two
10. Tuning
11. Help On The Way ->
12. Slipknot! ->
13. Franklin's Tower
14. Estimated Prophet ->
15. Eyes Of The World ->
16. Drums ->
17. Space ->
18. Truckin' ->
19. Wharf Rat ->
20. Goin' Down The Road Feeling Bad ->
21. One More Saturday Night
22. crowd and tuning

Encore
23. Keep Your Day Job


    length     expanded size    cdr  WAVE problems  fmt   ratio  filename
     1:13.22       12928988 B   ---   --   ---xx   flac  0.4058  GD1984-07-14.01.flac
     6:32.17       69188828 B   ---   --   ---xx   flac  0.6326  GD1984-07-14.02.flac
     8:05.10       85577564 B   ---   --   ---xx   flac  0.6027  GD1984-07-14.03.flac
     8:50.27       93555548 B   ---   --   ---xx   flac  0.6162  GD1984-07-14.04.flac
     8:00.57       84806108 B   ---   --   ---xx   flac  0.6050  GD1984-07-14.05.flac
     3:21.43       35557580 B   ---   --   ---xx   flac  0.6354  GD1984-07-14.06.flac
     5:19.65       56424524 B   ---   --   ---xx   flac  0.6373  GD1984-07-14.07.flac
     9:35.58      101566460 B   ---   --   ---xx   flac  0.5887  GD1984-07-14.08.flac
     2:49.73       29983340 B   ---   --   ---xx   flac  0.6295  GD1984-07-14.09.flac
     0:50.73        8991740 B   ---   --   ---xx   flac  0.5117  GD1984-07-14.10.flac
     4:42.06       49758956 B   ---   --   ---xx   flac  0.6202  GD1984-07-14.11.flac
     5:51.37       62003468 B   ---   --   ---xx   flac  0.6292  GD1984-07-14.12.flac
    10:39.24      112776092 B   ---   --   ---xx   flac  0.6334  GD1984-07-14.13.flac
    11:30.13      121746620 B   ---   --   ---xx   flac  0.6007  GD1984-07-14.14.flac
    11:21.63      120276620 B   ---   --   ---xx   flac  0.6293  GD1984-07-14.15.flac
    10:21.29      109612652 B   ---   --   ---xx   flac  0.4967  GD1984-07-14.16.flac
     7:29.55       79333004 B   ---   --   ---xx   flac  0.4974  GD1984-07-14.17.flac
     7:12.73       76376540 B   ---   --   ---xx   flac  0.5964  GD1984-07-14.18.flac
     9:49.61      104043116 B   ---   --   ---xx   flac  0.5708  GD1984-07-14.19.flac
     6:22.10       67408364 B   ---   --   ---xx   flac  0.6009  GD1984-07-14.20.flac
     4:05.19       43262732 B   ---   --   ---xx   flac  0.6107  GD1984-07-14.21.flac
     0:50.27        8883548 B   ---   --   ---xx   flac  0.4784  GD1984-07-14.22.flac
     4:15.08       45000860 B   ---   --   ---xx   flac  0.6335  GD1984-07-14.23.flac
   149:11.45     1579063252 B                            0.5953  (23 files)


Grateful Dead
Sunday July 15, 1984
Greek Theatre - Berkeley, CA
University Of California

Soundboard Cassette Masters
Sony D-6 Dolby C

Provided by ANON

Speed Corrections by Jason Chastain
Mastering by Jim Blackwood and Jamie Waddell
16bit by Charles Bandrofcheck

- only pairings of Dancin' > Bird Song and Do It In The Road > China Rider
- Betamania and Miller/Walker sources provides a few spots of tape flip and tape pause patching
- a "best of" radio show from this run debuted these tapes July 19, 2020 on Dead Air 91.3 FM KXCI Tucson
- https://spinitron.com/KXCI/pl/11283404/Dead-Air

24 bit/44.1 kHz FLAC -> dBpoweramp -> 16 bit/44.1 kHz WAV

16 bit/44.1 kHz WAV -> THL -> 16 bit/44.1 FLAC

Set One
01. Dancin' In The Street ->
02. Bird Song
03. New Minglewood Blues
04. Cumberland Blues
05. My Brother Esau
06. Ramble On Rose
07. Hell In A Bucket

Set Two
08. Why Don't We Do It In The Road ->
09. China Cat Sunflower ->
10. I Know You Rider
11. Playing In The Band ->
12. Uncle John's Band ->
13. Don't Need Love ->
14. Drums ->
15. Space ->
16. China Doll ->
17. Throwing Stones ->
18. Not Fade Away

Encore:
19. Brokedown Palace
20. Phil talks and Crowd
21. Johnny B. Goode

    length     expanded size    cdr  WAVE problems  fmt   ratio  filename
     8:01.63       84996620 B   ---   --   ---xx   flac  0.6267  GD1984-07-15.01.flac
    12:27.74      131944892 B   ---   --   ---xx   flac  0.5942  GD1984-07-15.02.flac
     8:39.61       91695116 B   ---   --   ---xx   flac  0.5973  GD1984-07-15.03.flac
     6:19.13       66886220 B   ---   --   ---xx   flac  0.6078  GD1984-07-15.04.flac
     5:06.13       54009020 B   ---   --   ---xx   flac  0.5968  GD1984-07-15.05.flac
     7:30.00       79380044 B   ---   --   ---xx   flac  0.5904  GD1984-07-15.06.flac
     6:50.63       72472220 B   ---   --   ---xx   flac  0.6208  GD1984-07-15.07.flac
     4:29.09       47472812 B   ---   --   ---xx   flac  0.6039  GD1984-07-15.08.flac
     5:28.68       58019180 B   ---   --   ---xx   flac  0.5949  GD1984-07-15.09.flac
     4:44.59       50236412 B   ---   --   ---xx   flac  0.6123  GD1984-07-15.10.flac
     9:35.36      101514716 B   ---   --   ---xx   flac  0.5960  GD1984-07-15.11.flac
    10:26.52      110548748 B   ---   --   ---xx   flac  0.5994  GD1984-07-15.12.flac
     7:42.44       81600332 B   ---   --   ---xx   flac  0.5769  GD1984-07-15.13.flac
    12:29.50      132241244 B   ---   --   ---xx   flac  0.5021  GD1984-07-15.14.flac
     5:53.66       62424476 B   ---   --   ---xx   flac  0.5269  GD1984-07-15.15.flac
     6:35.05       69689804 B   ---   --   ---xx   flac  0.5502  GD1984-07-15.16.flac
     9:17.00       98254844 B   ---   --   ---xx   flac  0.6027  GD1984-07-15.17.flac
     9:31.43      100825580 B   ---   --   ---xx   flac  0.5857  GD1984-07-15.18.flac
     5:06.33       54056060 B   ---   --   ---xx   flac  0.5541  GD1984-07-15.19.flac
     1:50.01       19406396 B   ---   --   ---xx   flac  0.4810  GD1984-07-15.20.flac
     4:04.43       43142780 B   ---   --   ---xx   flac  0.6117  GD1984-07-15.21.flac
   152:11.46     1610817516 B                            0.5839  (21 files)




More information about the bittorrent mailing list