[bittorrent] The Z-Man's Jam Diane And John Rabson's House Roswell, Georgia 2/8/2021 (Schoeps CCM4V'S FOB)

Automated Mailer noreply-bt.e at etree.org
Tue Feb 9 20:08:46 UTC 2021


Band:           Other
Torrent Name:   The Z-Man's Jam Diane And John Rabson's House Roswell, Georgia 2/8/2021 (Schoeps CCM4V'S FOB)
Uploaded by:    zmanatl
DB Link:        
Details:        http://bt.etree.org/details.php?id=611909

Contact the seeder at http://db.etree.org/zmanatl

If the link to this show does not work, it was probably removed for
being non-trade-friendly.

Description / text file:
-------------------------
The Z-Man's Jam
Diane And John Rabson's House
Roswell, Georgia
2/8/2021

Source: Schoeps CCM4V'S>Lunatec V2>Sound Devices 722 (24/44.1)
FOB/DFC/KFC/ZFC/AARP 8' From Stage, 6 1/2' High
DSP: Sound Devices 722>Sound Forge 10.0>CD Wave>flac(16)
ID3 Tagged In Foobar 2000
Recorded By: Z-Man
Seeded By: Z-Man
A Team Dirty South Recording

Disc I 1st Set

01 Greeting By Z-Man
02 Let The Good Times Roll
03 Midnight Rider 
04 Althea 
05 White Rabbit
06 Gpld Dust Woman 
07 She Belongs To Me
08 Duprees Diamond Blues 
09 *Here Comes Sunshine >
10 Whippin' Post

Disc II 2nd Set

01 Shakedown Street 
02 Piece Of My Heart 
03 White Rabbit
04 Stormy Monday 
05 Evil Ways >
06 #@Drums And Bass >
07 #Evil Ways Jam >
08 *#Eyes Of The World 
09 *I Shall Be Released
10 Tangled Up In Blue

* With Z-Man On Vocals
# With Z-Man On Percussion
@ With David "Cousin Eddie" Dyche On Percussion

thezmans2021-02-08d01t01.flac:a2d1b84bfde49eedcf329897e5b76b54
thezmans2021-02-08d01t02.flac:abfe772d64491b6ef62176d4a27e96ff
thezmans2021-02-08d01t03.flac:33539df1a020458b0f6580c50444855c
thezmans2021-02-08d01t04.flac:91911dea6d8ab76387518bafa596f46f
thezmans2021-02-08d01t05.flac:b5b39e26f35a13a13a84728892f794bf
thezmans2021-02-08d01t06.flac:62db81346ba7d47303d89e17710f5836
thezmans2021-02-08d01t07.flac:8a13db5c1bad5706dc329ef5f6953158
thezmans2021-02-08d01t08.flac:0f5f5840657303f512623749c52c1800
thezmans2021-02-08d01t09.flac:4d1389f2f2b0d94d24f3e5c21d35693f
thezmans2021-02-08d01t10.flac:645aaf37bb149db531d827f6a7a8c95e
thezmans2021-02-08d02t01.flac:0ff0bf2d0ebb9056e2538e42023f54b8
thezmans2021-02-08d02t02.flac:81c1d8eb8fb9aa5a663ba7cb4651df91
thezmans2021-02-08d02t03.flac:4af3cbb578ee043bc12367cb85d98419
thezmans2021-02-08d02t04.flac:141ec7c4bc987228803e55d4c02f92ec
thezmans2021-02-08d02t05.flac:172ca5d359cde47de3a3ad2152d00c35
thezmans2021-02-08d02t06.flac:d9bd71a01359b1a4bff3094f06a2bd81
thezmans2021-02-08d02t07.flac:c24adcdc08c28130b2055d540ae12236
thezmans2021-02-08d02t08.flac:2834d6370babe502940e926cea483ef1
thezmans2021-02-08d02t09.flac:5903ef058986dbbb0aaf4e90ae0a8a57
thezmans2021-02-08d02t10.flac:896112f10ff875868f9e2954b1afac61

length     expanded size    cdr  WAVE problems  fmt   ratio  filename
     1:10.04       12357452 B   ---   --   ---xx   flac  0.2942  thezmans2021-02-08d01t01.flac
     4:44.04       50107052 B   ---   --   ---xx   flac  0.4838  thezmans2021-02-08d01t02.flac
     4:05.31       43290956 B   ---   --   ---xx   flac  0.5155  thezmans2021-02-08d01t03.flac
     8:44.49       92548892 B   ---   --   ---xx   flac  0.5426  thezmans2021-02-08d01t04.flac
     3:19.19       35148332 B   ---   --   ---xx   flac  0.4599  thezmans2021-02-08d01t05.flac
     6:40.05       70571804 B   ---   --   ---xx   flac  0.4409  thezmans2021-02-08d01t06.flac
     6:54.50       73147244 B   ---   --   ---xx   flac  0.4790  thezmans2021-02-08d01t07.flac
     5:29.28       58101500 B   ---   --   ---xx   flac  0.5005  thezmans2021-02-08d01t08.flac
     6:41.29       70804652 B   ---   --   ---xx   flac  0.4827  thezmans2021-02-08d01t09.flac
     8:45.22       92661788 B   ---   --   ---xx   flac  0.5129  thezmans2021-02-08d01t10.flac
    12:15.46      129762236 B   ---   --   ---xx   flac  0.5142  thezmans2021-02-08d02t01.flac
     4:29.27       47515148 B   ---   --   ---xx   flac  0.5331  thezmans2021-02-08d02t02.flac
     3:27.15       36550124 B   ---   --   ---xx   flac  0.5751  thezmans2021-02-08d02t03.flac
    10:54.70      115530284 B   ---   --   ---xx   flac  0.4562  thezmans2021-02-08d02t04.flac
     7:02.48       74553740 B   ---   --   ---xx   flac  0.5376  thezmans2021-02-08d02t05.flac
     1:50.70       19568684 B   ---   --   ---xx   flac  0.5981  thezmans2021-02-08d02t06.flac
     1:31.48       16165340 B   ---   --   ---xx   flac  0.5820  thezmans2021-02-08d02t07.flac
    12:17.37      130093868 B   ---   --   ---xx   flac  0.5533  thezmans2021-02-08d02t08.flac
     7:16.38       76999820 B   ---   --   ---xx   flac  0.4361  thezmans2021-02-08d02t09.flac
     8:29.08       89806460 B   ---   --   ---xx   flac  0.4892  thezmans2021-02-08d02t10.flac
   126:09.48     1335285376 B                            0.5017  (20 files)







More information about the bittorrent mailing list