[bittorrent] Richard Huber Solo Acoustic The Green Room Mableton, Georgia 2/6/2021 (Schoeps CCM4V'S FOB)

Automated Mailer noreply-bt.e at etree.org
Mon Feb 8 16:35:31 UTC 2021


Band:           Other
Torrent Name:   Richard Huber Solo Acoustic The Green Room Mableton, Georgia 2/6/2021 (Schoeps CCM4V'S FOB)
Uploaded by:    zmanatl
DB Link:        
Details:        http://bt.etree.org/details.php?id=611906

Contact the seeder at http://db.etree.org/zmanatl

If the link to this show does not work, it was probably removed for
being non-trade-friendly.

Description / text file:
-------------------------
Richard Huber Solo Acoustic
The Green Room
Mableton, Georgia
2/6/2021

Source: Schoeps CCM4V'S>Lunatec V2>Sound Devices 722 (24/44.1)
FOB/DFC/KFC/ZFC/AARP 7' From Stage, 6' High
DSP: Sound Devices 722>Sound Forge 10.0>CD Wave>flac(16)
ID3 Tagged In Foobar 2000
Recorded By: Z-Man
Seeded By: Z-Man
A Team Dirty South Recording

Disc I 

01 Silvio
02 The Guitar
03 Goin' Up The Country
04 Opaline
05 *You Ain't Goin' Nowhere
06 *Fisherman's Blues (Aborted)
07 *Fisherman's Blues
08 The L & N Don't Stop Here Anymore

* With Patricia Huber (Richard's Wife) On Vocals

richard2021-02-06d01t01.flac:9fff5c571d908afeb673405b7ef551e7
richard2021-02-06d01t02.flac:6fd1dd72d3593fe2318af240635726fa
richard2021-02-06d01t03.flac:4ef133697a61dfbd46f95674a40c2a0b
richard2021-02-06d01t04.flac:3e4f78f735d349f25824217abb3a55ee
richard2021-02-06d01t05.flac:6870bf0f0211946f9de80dc23eb4f074
richard2021-02-06d01t06.flac:597407cce2853cdecabb2b10b0621674
richard2021-02-06d01t07.flac:db52c399f9a25d36ab7591f6742b2ba7
richard2021-02-06d01t08.flac:035e4da1407843f3ff44ad51e80cacd2

length     expanded size    cdr  WAVE problems  fmt   ratio  filename
     4:02.08       42707660 B   ---   --   ---xx   flac  0.4583  richard2021-02-06d01t01.flac
     2:43.17       28793228 B   ---   --   ---xx   flac  0.4482  richard2021-02-06d01t02.flac
     2:50.65       30140924 B   ---   --   ---xx   flac  0.4349  richard2021-02-06d01t03.flac
     6:29.50       68737244 B   ---   --   ---xx   flac  0.4275  richard2021-02-06d01t04.flac
     2:54.10       30717164 B   ---   --   ---xx   flac  0.4611  richard2021-02-06d01t05.flac
     1:11.55       12653804 B   ---   --   ---xx   flac  0.4390  richard2021-02-06d01t06.flac
     3:04.61       32601116 B   ---   --   ---xx   flac  0.4647  richard2021-02-06d01t07.flac
     5:04.27       53689148 B   ---   --   ---xx   flac  0.4600  richard2021-02-06d01t08.flac
    28:20.68      300040288 B                            0.4484  (8 files)




More information about the bittorrent mailing list