[bittorrent] Taste Steady Hand Beerr Co. Atlanta, Georgia 2/6/2021 (Schoeps CCM4V'S FOB)

Automated Mailer noreply-bt.e at etree.org
Mon Feb 8 04:42:32 UTC 2021


Band:           Other
Torrent Name:   Taste Steady Hand Beerr Co. Atlanta, Georgia 2/6/2021 (Schoeps CCM4V'S FOB)
Uploaded by:    zmanatl
DB Link:        
Details:        http://bt.etree.org/details.php?id=611902

Contact the seeder at http://db.etree.org/zmanatl

If the link to this show does not work, it was probably removed for
being non-trade-friendly.

Description / text file:
-------------------------
Taste
Steady Hand Beerr Co.
Atlanta, Georgia
2/6/2021

Source: Schoeps CCM4V'S>Lunatec V2>Sound Devices 722 (24/44.1)
FOB/DFC/KFC/ZFC/AARP 6' From Stage, 6' High
DSP: Sound Devices 722>Sound Forge 10.0>CD Wave>flac(16)
ID3 Tagged In Foobar 2000
Recorded By: Z-Man
Seeded By: Z-Man
A Team Dirty South Recording

Disc I 1st Set

01 Fly Like An Eagle 
02 Boogie On Reggae Woman >
03 I Wanna Be Your Lover >
04 Papa Was A Rolling Stone >
05 Just Kissed My Baby >
06 Cheap Sunglasses >
07 Shakedown Street >
08 Funky Town >
09 Who's That Lady >
10 Fame

Tyler Cates - Guitar And Vocals
Brian Steinleigle - Guitar And Vocals
Kip Thomas - Bass
Tony Erice - Percussion
Erik Aylesworth - Drums

taste2021-02-06d01t01.flac:116d67490730ddbe6dae9da56bad46d9
taste2021-02-06d01t02.flac:34e9b132e10c29bb9ca46ae15af31b82
taste2021-02-06d01t03.flac:e756591060a4f3a0b318ce1d54f09330
taste2021-02-06d01t04.flac:6d94ff062da95d85c323ac21b9433208
taste2021-02-06d01t05.flac:1e7726630111a540c0631fd5cf7bdde2
taste2021-02-06d01t06.flac:f2dbdb01d443e8bcfea3f59a3f456c38
taste2021-02-06d01t07.flac:5222242bfc602a8c0585c1906336d4a1
taste2021-02-06d01t08.flac:215d810898800a9c3617205c19786eef
taste2021-02-06d01t09.flac:5a8d1373eaf3cb2b1590e22538d0d196
taste2021-02-06d01t10.flac:28d6c42c7d6a4e806702de66e316a3aa

length     expanded size    cdr  WAVE problems  fmt   ratio  filename
    21:28.21      227252636 B   ---   --   ---xx   flac  0.5003  taste2021-02-06d01t01.flac
     7:35.08       80280860 B   ---   --   ---xx   flac  0.5353  taste2021-02-06d01t02.flac
     6:27.66       68422076 B   ---   --   ---xx   flac  0.5288  taste2021-02-06d01t03.flac
     6:39.61       70527116 B   ---   --   ---xx   flac  0.5447  taste2021-02-06d01t04.flac
     7:09.26       75736796 B   ---   --   ---xx   flac  0.5356  taste2021-02-06d01t05.flac
     5:41.07       60168908 B   ---   --   ---xx   flac  0.5255  taste2021-02-06d01t06.flac
     6:52.69       72839132 B   ---   --   ---xx   flac  0.5806  taste2021-02-06d01t07.flac
     1:55.04       20295452 B   ---   --   ---xx   flac  0.5532  taste2021-02-06d01t08.flac
     3:20.47       35390588 B   ---   --   ---xx   flac  0.5801  taste2021-02-06d01t09.flac
     5:19.55       56401004 B   ---   --   ---xx   flac  0.5182  taste2021-02-06d01t10.flac
    72:29.64      767314568 B                            0.5301  (10 files)




More information about the bittorrent mailing list