[bittorrent] gd1993-05-16.151684.sbd.cm.miller.t.flac16

Automated Mailer noreply-bt.e at etree.org
Mon Feb 8 00:07:03 UTC 2021


Band:           Grateful Dead
Torrent Name:   gd1993-05-16.151684.sbd.cm.miller.t.flac16
Uploaded by:    norm
DB Link:        
Details:        http://bt.etree.org/details.php?id=611900

Contact the seeder at http://db.etree.org/norm

If the link to this show does not work, it was probably removed for
being non-trade-friendly.

Description / text file:
-------------------------
Grateful Dead - May 16, 1993
Sam Boyd Silver Bowl - Las Vegas, NV

Recording Info:
SBD > Cassette Master (TDK SA-X100)

Transfer Info:
Cassette Master (Nakamichi CR-7A) > Tascam DA-3000 (DSF 1-bit/5.6MHz) >
KORG AudioGate 4 > Samplitude Pro X5 Suite > FLAC/24
(1 DVD FLAC)

All Transfers and Mastering By Charlie Miller
charliemiller87 at earthlink.net
December 31, 2020

Notes:
-- This is a remastered version of my previous source (shnid=140260)
-- I fixed the reversed channels in Set 1 and raised the levels in both sets
-- Multiple masters were used to make this show complete
-- 151343 24 -> 16 @ 44.1

Set 1:
01 - Touch Of Grey
02 - Walkin' Blues
03 - Althea
04 - When I Paint My Masterpiece
05 - Row Jimmy
06 - Cassidy

Set 2:
07 - Samson And Delilah
08 - Help On The Way >
09 - Slipknot! >
10 - Franklin's Tower
11 - Looks Like Rain >
12 - Terrapin Station >
13 - Drums >
14 - Space >
15 - The Other One >
16 - Wharf Rat >
17 - Throwing Stones >
18 - Turn On Your Lovelight

Encore:
19 - Brokedown Palace


SHNTOOL OUTPUT:
    length     expanded size    cdr  WAVE problems  fmt   ratio  filename
     7:46.47       82312988 B   ---   --   ---xx   flac  0.5982  01 Touch Of Grey.flac
     5:52.07       62109308 B   ---   --   ---xx   flac  0.5929  02 Walkin' Blues.flac
     8:21.36       88461116 B   ---   --   ---xx   flac  0.5831  03 Althea.flac
     8:01.72       85017788 B   ---   --   ---xx   flac  0.5474  04 When I Paint My Masterpiece.flac
    10:04.74      106719692 B   ---   --   ---xx   flac  0.5982  05 Row Jimmy.flac
     7:03.73       74788940 B   ---   --   ---xx   flac  0.6191  06 Cassidy.flac
     9:16.05       98090204 B   ---   --   ---xx   flac  0.6011  07 Samson And Delilah.flac
     3:49.39       40487372 B   ---   --   ---xx   flac  0.6079  08 Help On The Way.flac
     5:48.41       61483676 B   ---   --   ---xx   flac  0.5968  09 Slipknot!.flac
    11:54.15      125984924 B   ---   --   ---xx   flac  0.6228  10 Franklin's Tower.flac
     9:47.36      103631516 B   ---   --   ---xx   flac  0.5727  11 Looks Like Rain.flac
    14:39.03      155062700 B   ---   --   ---xx   flac  0.5934  12 Terrapin Station.flac
     8:42.45       92186684 B   ---   --   ---xx   flac  0.5079  13 Drums.flac
     5:44.19       60726332 B   ---   --   ---xx   flac  0.5008  14 Space.flac
     7:58.32       84394508 B   ---   --   ---xx   flac  0.6031  15 The Other One.flac
    10:48.67      114464828 B   ---   --   ---xx   flac  0.6062  16 Wharf Rat.flac
     9:10.00       97020044 B   ---   --   ---xx   flac  0.5892  17 Throwing Stones.flac
     5:22.24       56857292 B   ---   --   ---xx   flac  0.5910  18 Turn On Your Lovelight.flac
     5:02.12       53301068 B   ---   --   ---xx   flac  0.5149  19 Brokedown Palace.flac
   155:14.47     1643100980 B                            0.5843  (19 files)



More information about the bittorrent mailing list