[bittorrent] jg1982-11-09.151677.jgb.early.lamarre.flac2448

Automated Mailer noreply-bt.e at etree.org
Sun Feb 7 21:54:21 UTC 2021


Band:           Garcia
Torrent Name:   jg1982-11-09.151677.jgb.early.lamarre.flac2448
Uploaded by:    nfagdtrfb
DB Link:        
Details:        http://bt.etree.org/details.php?id=611897

Contact the seeder at http://db.etree.org/nfagdtrfb

If the link to this show does not work, it was probably removed for
being non-trade-friendly.

Description / text file:
-------------------------
JERRY GARCIA BAND
E.M. Loew's Theater
Worcester MA
11-09-1982
Early Show

01 How Sweet It Is
02 Catfish John
03 I Second that Emotion
04 Love in the Afternoon
05 Let it Rock
06 Run for the Roses
07 Dear Prudence
08 Tangled Up in Blue
09 Encore: Deal

Source: Sennheiser MD-441's > Sony TC-D5 > Maxell XLII-90, 
set up front row balcony, recording by Doug Lamarre.

Transfer: MAC > Nakamichi CR-5A (Dolby B in) > Edirol FA-66 > 
Wavelab 2448 > CD-Wave (24bit output) > TLH > FLAC 2448 tagged. 
Transferred by Andrew F. 02/2021

Note: This transfer upgrades ID 4417/4418/12250 and eliminates 
the CDR stage plus an unlisted cassette generation. ID-110490 
patches; LIR 0:00 > 0:02, RFTR 0:00 > 0:03, & Deal 0:00 > 0:04.

    length     expanded size    cdr  WAVE problems  fmt   ratio  filename
     9:58.667     172416044 B   cxx   --   ---xx   flac  0.7110  jgb1982-11-09t01.flac
    11:31.040     199019564 B   cxx   --   ---xx   flac  0.7008  jgb1982-11-09t02.flac
    10:10.187     175733804 B   cxx   --   ---xx   flac  0.7111  jgb1982-11-09t03.flac
    11:46.227     203393324 B   cxx   --   ---xx   flac  0.6898  jgb1982-11-09t04.flac
     9:11.760     158906924 B   cxx   --   ---xx   flac  0.7181  jgb1982-11-09t05.flac
     4:57.613      85712684 B   cxx   --   ---xx   flac  0.7089  jgb1982-11-09t06.flac
    12:45.133     220358444 B   cxx   --   ---xx   flac  0.6968  jgb1982-11-09t07.flac
    12:44.787     220258604 B   cxx   --   ---xx   flac  0.7162  jgb1982-11-09t08.flac
     7:30.031     129608996 B   cxx   --   ---xx   flac  0.7225  jgb1982-11-09t09.flac
    90:35.444    1565408388 B                            0.7072  (9 files)

No errors occured.




More information about the bittorrent mailing list