[bittorrent] Marc Sommers And Friends The Hunt House Ballroom Marietta, Georgia 12/18/2020 (Schoeps CCM4V'S FOB)

Automated Mailer noreply-bt.e at etree.org
Sat Feb 6 20:21:46 UTC 2021


Band:           Other
Torrent Name:   Marc Sommers And Friends  The Hunt House Ballroom Marietta, Georgia 12/18/2020 (Schoeps CCM4V'S FOB)
Uploaded by:    zmanatl
DB Link:        
Details:        http://bt.etree.org/details.php?id=611881

Contact the seeder at http://db.etree.org/zmanatl

If the link to this show does not work, it was probably removed for
being non-trade-friendly.

Description / text file:
-------------------------
Marc Sommers And Friends 
The Hunt House Ballroom
Marietta, Georgia
12/18/2020

Source: Schoeps CCM4V'S>Lunatec V2>Sound Devices 722 (24/44.1)
FOB/DFC/KFC/ZFC/AARP 6' From Stage, 4 1/2' High
DSP: Sound Devices 722>Sound Forge 10.0>CD Wave>flac(16)
ID3 Tagged In Foobar 2000
Recorded By: Z-Man
Seeded By: Z-Man
A Team Dirty South Recording

Disc I 1st Set

1st Set:
01 Walkin' On Oak 
02 Highway Song
03 Deep Elem Blues 
04 Sage's 21st Century
05 Tell It On The Mountain
06 ?
2nd Set:
07 This Is It
08 Stormy Weather
09 It's Good To Be King
10 Yellow Sign
11 ?
12 Have Yourself A Very Merry Christmas

Marc Sommers - Acoustic Guitar, Harmonica, And Vocals
Bobby Lee Rodgers - Bass
Alan Dingus - Electric Guitar And Vocals
Paul Long - Acoustic Guitar And Vocals
Ryan Marcus - Drums

marc2020-12-18d01t01.flac:13cbe677b6b0cab54b1ce70e66288469
marc2020-12-18d01t02.flac:36aeb1d7a0cc5389b87319080f4fe556
marc2020-12-18d01t03.flac:5364e4c27aca28a8a00d98cd7e8e3e55
marc2020-12-18d01t04.flac:6ad5a76d4c28b794e8707c7a366a3c65
marc2020-12-18d01t05.flac:00da6f41d1a532ea588da210a3eb5699
marc2020-12-18d01t06.flac:800d0de81c4723b6638c14d4d4587b0f
marc2020-12-18d01t07.flac:5282de096b1cc787d54347517739879c
marc2020-12-18d01t08.flac:3a3a1891f1634af8e884ed7f77ffa367
marc2020-12-18d01t09.flac:f4ef1516eeac431c1f6e4546a520f2b8
marc2020-12-18d01t10.flac:d3f9f35d9222c12b32b42f28e196dda0
marc2020-12-18d01t11.flac:d8762643d124748d5cc04baea28ca0ff

length     expanded size    cdr  WAVE problems  fmt   ratio  filename
     4:41.54       49695452 B   ---   --   ---xx   flac  0.4300  marc2020-12-18d01t01.flac
     4:35.17       48550028 B   ---   --   ---xx   flac  0.4471  marc2020-12-18d01t02.flac
     4:59.69       52905932 B   ---   --   ---xx   flac  0.5421  marc2020-12-18d01t03.flac
     5:26.00       57506444 B   ---   --   ---xx   flac  0.4768  marc2020-12-18d01t04.flac
     6:11.11       65470316 B   ---   --   ---xx   flac  0.5069  marc2020-12-18d01t05.flac
     5:31.03       58395500 B   ---   --   ---xx   flac  0.4843  marc2020-12-18d01t06.flac
     4:14.23       44859740 B   ---   --   ---xx   flac  0.4858  marc2020-12-18d01t07.flac
     5:43.14       60538172 B   ---   --   ---xx   flac  0.4688  marc2020-12-18d01t08.flac
     5:51.29       61984652 B   ---   --   ---xx   flac  0.4472  marc2020-12-18d01t09.flac
     5:49.30       61634204 B   ---   --   ---xx   flac  0.4732  marc2020-12-18d01t10.flac
     4:06.22       43446188 B   ---   --   ---xx   flac  0.3702  marc2020-12-18d01t11.flac
    57:09.47      604986628 B                            0.4691  (11 files)



J



More information about the bittorrent mailing list