[bittorrent] Wendlo Steady Hand Beer Co. Atlanta, Georgia 2/5/2021 (Schoeps CCM4V'S FOB)

Automated Mailer noreply-bt.e at etree.org
Sat Feb 6 05:20:16 UTC 2021


Band:           Other
Torrent Name:   Wendlo Steady Hand Beer Co.  Atlanta, Georgia 2/5/2021 (Schoeps CCM4V'S FOB)
Uploaded by:    zmanatl
DB Link:        
Details:        http://bt.etree.org/details.php?id=611876

Contact the seeder at http://db.etree.org/zmanatl

If the link to this show does not work, it was probably removed for
being non-trade-friendly.

Description / text file:
-------------------------
Wendlo
Steady Hand Beer Co. 
Atlanta, Georgia
2/5/2021

Source: Schoeps CCM4V'S>Lunatec V2>Sound Devices 722 (24/44.1)
FOB/DFC/KFC/ZFC/AARP 6' From Stage, 5 1/2' High
DSP: Sound Devices 722>Sound Forge 10.0>CD Wave>flac(16)
ID3 Tagged In Foobar 2000
Recorded By: Z-Man
Seeded By: Z-Man
A Team Dirty South Recording

Disc I 

01 Get Lucky
02 I Feel It Comin'
03 ?
04 Gve Me A Reason To
05 What Do I Do >
06 Downtown
07 Walk Away
08 Don't Know Why
09 ?
10 Back Pocket
11 Valerie >
12 ?
13 I Want You Back

Jacob Hamilton - Acoustic Guitar And Vocals
Chelsea Hamilton - Vodals And Percussion

wendlo2020-02-05d01t01.flac:783889b417f5ec05af8ac49a62f87e78
wendlo2020-02-05d01t02.flac:2f64f27e9ef3a0ecee48652cd7adea69
wendlo2020-02-05d01t03.flac:6939c1fac5409eea9e6c254fb4cbcc34
wendlo2020-02-05d01t04.flac:905540f0838b5bb8705920f229dbb8df
wendlo2020-02-05d01t05.flac:609af6db7ec2137109ef704a7a3cc408
wendlo2020-02-05d01t06.flac:a6daac92a59395c095782cec2ad5b246
wendlo2020-02-05d01t07.flac:c8cfc94ea40a8cbb9c9eb9458fa07a0c
wendlo2020-02-05d01t08.flac:0330bb85c81e3d362eccf954bf37d581
wendlo2020-02-05d01t09.flac:503a7c7621d4cacdebd859059e8fbe6a
wendlo2020-02-05d01t10.flac:4fc6ad1e44dce03f7219424df2d4f1ba
wendlo2020-02-05d01t11.flac:3981ddd9826bd94be6f9a30dbe6e4c6d
wendlo2020-02-05d01t12.flac:be1b340eb0a69cbb362413378549791c
wendlo2020-02-05d01t13.flac:0552f21fa6d3bb6ff27bf8475a7f0a87

 length     expanded size    cdr  WAVE problems  fmt   ratio  filename
     6:19.42       66954428 B   ---   --   ---xx   flac  0.4391  wendlo2020-02-05d01t01.flac
     3:49.02       40400348 B   ---   --   ---xx   flac  0.4846  wendlo2020-02-05d01t02.flac
     3:34.42       37848428 B   ---   --   ---xx   flac  0.5232  wendlo2020-02-05d01t03.flac
     4:14.36       44890316 B   ---   --   ---xx   flac  0.4329  wendlo2020-02-05d01t04.flac
     5:10.06       54698156 B   ---   --   ---xx   flac  0.4993  wendlo2020-02-05d01t05.flac
     2:55.26       30931196 B   ---   --   ---xx   flac  0.4457  wendlo2020-02-05d01t06.flac
     3:29.08       36886460 B   ---   --   ---xx   flac  0.5281  wendlo2020-02-05d01t07.flac
     4:13.08       44648060 B   ---   --   ---xx   flac  0.4290  wendlo2020-02-05d01t08.flac
     4:34.53       48458300 B   ---   --   ---xx   flac  0.5084  wendlo2020-02-05d01t09.flac
     2:38.30       27941804 B   ---   --   ---xx   flac  0.5075  wendlo2020-02-05d01t10.flac
     3:10.50       33633644 B   ---   --   ---xx   flac  0.5288  wendlo2020-02-05d01t11.flac
     3:45.27       39753548 B   ---   --   ---xx   flac  0.5113  wendlo2020-02-05d01t12.flac
     3:49.03       40402700 B   ---   --   ---xx   flac  0.5439  wendlo2020-02-05d01t13.flac
    51:43.33      547447388 B                            0.4874  (13 files)





More information about the bittorrent mailing list