[bittorrent] Yo Mama's Big Fat Booty Band The Whan Bam Fan Jam St. John's County Fairgrounds St. Augustine, Florida 12/12/2020 (Schoeps CCM4V'S FOB)

Automated Mailer noreply-bt.e at etree.org
Fri Feb 5 19:21:16 UTC 2021


Band:           Other
Torrent Name:   Yo Mama's Big Fat Booty Band The Whan Bam Fan Jam St. John's County Fairgrounds St. Augustine, Florida 12/12/2020 (Schoeps CCM4V'S FOB)
Uploaded by:    zmanatl
DB Link:        
Details:        http://bt.etree.org/details.php?id=611872

Contact the seeder at http://db.etree.org/zmanatl

If the link to this show does not work, it was probably removed for
being non-trade-friendly.

Description / text file:
-------------------------
Yo Mama's Big Fat Booty Band
The Whan Bam Fan Jam
St. John's County Fairgrounds
St. Augustine, Florida
12/12/2020

Source: Schoeps CCM4V'S>Lunatec V2>Sound Devices 722 (24/44.1)
FOB/DFC/KFC/ZFC/AARP 9' From Stage, 6 1/2' High
DSP: Sound Devices 722>Sound Forge 10.0>CD Wave>flac(16)
ID3 Tagged In Foobar 2000
Recorded By: Z-Man
Seeded By: Z-Man
A Team Dirty South Recording

Disc I 

01 ?
02 24/7
03 ?
04 ?
05 The Den
06 Lovin'
07 Instrumental
08 Fencewalk

Disc II 

01 ?
02 Instrumental >
03 Funk Life
04 See The Truth
05 ?
06 ?
Encore:
07 Thanks
08 ?

yomama2020-12-12d01t01.flac:27972e8ae7371566ba217d560daebe2a
yomama2020-12-12d01t02.flac:63ebb67cbea58dffba4dbc58c6db962a
yomama2020-12-12d01t03.flac:7281c83a05af78baa28230d08ceb94c4
yomama2020-12-12d01t04.flac:88b5454ba6c297a8dd3035211922f11f
yomama2020-12-12d01t05.flac:8779a7c4f0a7732b29c7205bb798a92d
yomama2020-12-12d01t06.flac:dce1155601a37044b5b7c473db971d41
yomama2020-12-12d01t07.flac:2c8d8fc59fdf82d0b11a2b459e3946fe
yomama2020-12-12d01t08.flac:1034a45f98bd9068cf12289718199d18
yomama2020-12-12d02t01.flac:ff661df743dafe42d5737d621ea8cbe0
yomama2020-12-12d02t02.flac:24eae8fb552cafd4b790a40564a50275
yomama2020-12-12d02t03.flac:49e3d9232fd1f1129992e994ce1d4bb1
yomama2020-12-12d02t04.flac:4b95087c791e446df7af41fa05ded8af
yomama2020-12-12d02t05.flac:9531a27a7b5654bca6d5c1432151f0a9
yomama2020-12-12d02t06.flac:e593047368db0a148e3c1517d157f3a9
yomama2020-12-12d02t07.flac:68c0c9e7a1b076f2d00753452fd82591
yomama2020-12-12d02t08.flac:bc60919d45cdc715a3f297dee9e1dbf4

  length     expanded size    cdr  WAVE problems  fmt   ratio  filename
     6:20.65       67184924 B   ---   --   ---xx   flac  0.5235  yomama2020-12-12d01t01.flac
     4:20.26       45925196 B   ---   --   ---xx   flac  0.5172  yomama2020-12-12d01t02.flac
     5:19.07       56288108 B   ---   --   ---xx   flac  0.5474  yomama2020-12-12d01t03.flac
     6:19.31       66928556 B   ---   --   ---xx   flac  0.5292  yomama2020-12-12d01t04.flac
     7:46.28       82268300 B   ---   --   ---xx   flac  0.5145  yomama2020-12-12d01t05.flac
     5:33.06       58755356 B   ---   --   ---xx   flac  0.4897  yomama2020-12-12d01t06.flac
     4:30.10       47651564 B   ---   --   ---xx   flac  0.4833  yomama2020-12-12d01t07.flac
     5:35.35       59176364 B   ---   --   ---xx   flac  0.5277  yomama2020-12-12d01t08.flac
     5:58.03       63158300 B   ---   --   ---xx   flac  0.4951  yomama2020-12-12d02t01.flac
     5:22.31       56873756 B   ---   --   ---xx   flac  0.5494  yomama2020-12-12d02t02.flac
     8:43.02       92261948 B   ---   --   ---xx   flac  0.5267  yomama2020-12-12d02t03.flac
     5:32.50       58682444 B   ---   --   ---xx   flac  0.5405  yomama2020-12-12d02t04.flac
     4:35.20       48557084 B   ---   --   ---xx   flac  0.5580  yomama2020-12-12d02t05.flac
     9:03.16       95822876 B   ---   --   ---xx   flac  0.5349  yomama2020-12-12d02t06.flac
     0:56.33        9956060 B   ---   --   ---xx   flac  0.3169  yomama2020-12-12d02t07.flac
     6:35.60       69819164 B   ---   --   ---xx   flac  0.5440  yomama2020-12-12d02t08.flac
    92:31.48      979310000 B                            0.5237  (16 files)






More information about the bittorrent mailing list