[bittorrent] Barry Richmsn Blues Jam The Rusty Barrel Marietta, Georgia 2/4/2021 (Schoeps CCM4V'S FOB)

Automated Mailer noreply-bt.e at etree.org
Fri Feb 5 03:56:22 UTC 2021


Band:           Other
Torrent Name:   Barry Richmsn Blues Jam The Rusty Barrel  Marietta, Georgia 2/4/2021 (Schoeps CCM4V'S FOB)
Uploaded by:    zmanatl
DB Link:        
Details:        http://bt.etree.org/details.php?id=611868

Contact the seeder at http://db.etree.org/zmanatl

If the link to this show does not work, it was probably removed for
being non-trade-friendly.

Description / text file:
-------------------------
Barry Richmsn Blues Jam
The Rusty Barrel 
Marietta, Georgia
2/4/2021

Source: Schoeps CCM4V'S>Lunatec V2>Sound Devices 722 (24/44.1)
FOB/DFC/KFC/ZFC/AARP 8' From Stage, 6 1/2' High
DSP Sound Devices 722>Sound Forge 10.0>CD Wave>flac(16)
ID3 Tagged In Foobar 2000
Recorded By: Z-Man
Seeded By: Z-Man
A Team Dirty South Recording

Disc I 

01 Greeting
02 Little Wing
03 Ain't No Love In The Heart Of The City
04 Instrumental
05 Green Light Lady
06 Mr. PC

Barry Richman - Guitar
Dana McCarthy - Bass And Vocals 
Charlie Korch - Drums And Vocals

barry2021-02-04d01t01.flac:08ceb1308f71cce4de39d40f95d9df33
barry2021-02-04d01t02.flac:95046fc886d76f456cd2e73e477b62f4
barry2021-02-04d01t03.flac:1c7949e7db65b774025f0959ed52c0d3
barry2021-02-04d01t04.flac:5969c9c4f9b13e225959dc3f3b6fed86
barry2021-02-04d01t05.flac:b5bcb40c2cb174b150113f1b5b8a0d6e
barry2021-02-04d01t06.flac:d73a89b43083bd2b023c0e81c644c93b

length     expanded size    cdr  WAVE problems  fmt   ratio  filename
     0:46.26        8175596 B   ---   --   ---xx   flac  0.2926  barry2021-02-04d01t01.flac
     6:31.01       68974796 B   ---   --   ---xx   flac  0.4922  barry2021-02-04d01t02.flac
     5:58.65       63304124 B   ---   --   ---xx   flac  0.4966  barry2021-02-04d01t03.flac
     8:08.13       86113820 B   ---   --   ---xx   flac  0.5407  barry2021-02-04d01t04.flac
     3:24.06       35999756 B   ---   --   ---xx   flac  0.5757  barry2021-02-04d01t05.flac
     4:57.22       52442588 B   ---   --   ---xx   flac  0.4716  barry2021-02-04d01t06.flac
    29:45.58      315010680 B                            0.5073  (6 files)





More information about the bittorrent mailing list