[bittorrent] Mulholland Chris Moore's House Woodstock, Georgia 2/3/2021 (Schoeps CCM4V'S FOB)

Automated Mailer noreply-bt.e at etree.org
Thu Feb 4 14:27:11 UTC 2021


Band:           Other
Torrent Name:   Mulholland Chris Moore's House Woodstock, Georgia 2/3/2021 (Schoeps CCM4V'S FOB)
Uploaded by:    zmanatl
DB Link:        
Details:        http://bt.etree.org/details.php?id=611863

Contact the seeder at http://db.etree.org/zmanatl

If the link to this show does not work, it was probably removed for
being non-trade-friendly.

Description / text file:
-------------------------
Mulholland
Chris Moore's House
Woodstock, Georgia
2/3/2021

Source: Schoeps CCM4V'S>Lunatec V2>Sound Devices 722 (24/44.1)
FOB/DFC/KFC/ZFC/AARP 8' From Stage, 5 1/2' High
DSP Sound Devices 722>Sound Forge 10.0>CD Wave>flac(16)
ID3 Tagged In Foobar 2000
Recorded By: Z-Man
Seeded By: Z-Man
A Team Dirty South Recording

Disc I 1st Set

01 Listen To Her Heart
02 Don't Do Me Like That
03 I Won't Back Down
04 Refugee
05 Jammin' Me >
06 Intro Jam >
07 Breakdown
08 There Goes My Girl
09 Runnin' Down A Dream >
10 You're So Bad 
11 End Of The Line

Disc II 2nd Set 

01 American Girl
02 You Wreck Me 
03 Good To Be King
04 Last Dance With MaryJane
05 Into The Great Wide Open
06 Free Fallin'
07 Handle With Care
08 The Waiting
09 A Face In The Crowd
10 Love Is A Long Road
11 Swingin'
12 Scare Easy
13 Right Thing To Do

Joe Benson - Electric Guitar, Harmonica, And Vocals  
Scott Hardy - Electric Guitar, Avoustic Guitar, And Vocals
Joe Arenella - Keyoards, Acoustic Guitar, Percussion, And Vocals
Jeremy "Jerbo" Foti - Bass 
Chris Moore - Drums

mulholland2021-02-03d01t01.flac:383ed11057fe68c461706156196df329
mulholland2021-02-03d01t02.flac:ee936fe006e018f085d015d2d2d0dede
mulholland2021-02-03d01t03.flac:37eecbe3e1adb07002461a1267de5f44
mulholland2021-02-03d01t04.flac:282779a430194cb9dbc059308aef383d
mulholland2021-02-03d01t05.flac:a96480cee85746034712957b1f0942c0
mulholland2021-02-03d01t06.flac:8acadf1827aabde615b064fd10c096fe
mulholland2021-02-03d01t07.flac:31354e716178a96c68a777cda3291404
mulholland2021-02-03d01t08.flac:b9a0ceffcfc1d3860e9a71e0929b8134
mulholland2021-02-03d01t09.flac:5a7c974cd3a79e17d562420c7f33c255
mulholland2021-02-03d01t10.flac:f3ff961eb5a5842e811a61c530323e3f
mulholland2021-02-03d01t11.flac:b1ec1ef747b80693b176945232e65d20
mulholland2021-02-03d02t01.flac:7d9f2858f62e427159967d0786439e5d
mulholland2021-02-03d02t02.flac:1620a926e8250b15bdcb89f6641f3d24
mulholland2021-02-03d02t03.flac:335e017491c45987b2fc9e8553947809
mulholland2021-02-03d02t04.flac:db4b74039cbd342e10fadd6ec4ba7842
mulholland2021-02-03d02t05.flac:88a38dbde267453e95eab307580d46ec
mulholland2021-02-03d02t06.flac:1cb2262265944a1e8192cc790c5579f8
mulholland2021-02-03d02t07.flac:940400213b2ef0011aae63aad0db86bc
mulholland2021-02-03d02t08.flac:26b026a2b2a2feb223f91443a8446091
mulholland2021-02-03d02t09.flac:0654abfc7172c46fcaa99f6176b489bd
mulholland2021-02-03d02t10.flac:2d2273e8615b2dabb372d147b2f222d4
mulholland2021-02-03d02t11.flac:011a1beea2e82cc8409cf61333082d72
mulholland2021-02-03d02t12.flac:8fdb923ea3d30a16e7f61a6d8c685cc7
mulholland2021-02-03d02t13.flac:5dc7ec0a846c73f0c05252969c55517a

length     expanded size    cdr  WAVE problems  fmt   ratio  filename
     3:14.63       34369820 B   ---   --   ---xx   flac  0.5088  mulholland2021-02-03d01t01.flac
     3:05.20       32681084 B   ---   --   ---xx   flac  0.5657  mulholland2021-02-03d01t02.flac
     3:03.22       32332988 B   ---   --   ---xx   flac  0.5128  mulholland2021-02-03d01t03.flac
     3:33.37       37660268 B   ---   --   ---xx   flac  0.5787  mulholland2021-02-03d01t04.flac
     4:02.35       42771164 B   ---   --   ---xx   flac  0.6360  mulholland2021-02-03d01t05.flac
     0:47.43        8391980 B   ---   --   ---xx   flac  0.5144  mulholland2021-02-03d01t06.flac
     3:36.48       38215340 B   ---   --   ---xx   flac  0.4964  mulholland2021-02-03d01t07.flac
     4:48.20       50850284 B   ---   --   ---xx   flac  0.5933  mulholland2021-02-03d01t08.flac
     4:20.45       45969884 B   ---   --   ---xx   flac  0.6457  mulholland2021-02-03d01t09.flac
     3:18.01       34929596 B   ---   --   ---xx   flac  0.5040  mulholland2021-02-03d01t10.flac
     3:52.70       41089484 B   ---   --   ---xx   flac  0.5170  mulholland2021-02-03d01t11.flac
     4:43.32       49996508 B   ---   --   ---xx   flac  0.5606  mulholland2021-02-03d02t01.flac
     3:34.41       37846076 B   ---   --   ---xx   flac  0.6114  mulholland2021-02-03d02t02.flac
     5:26.33       57584060 B   ---   --   ---xx   flac  0.5503  mulholland2021-02-03d02t03.flac
     5:13.61       55356716 B   ---   --   ---xx   flac  0.5920  mulholland2021-02-03d02t04.flac
     4:13.11       44655116 B   ---   --   ---xx   flac  0.5783  mulholland2021-02-03d02t05.flac
     5:03.71       53616236 B   ---   --   ---xx   flac  0.5020  mulholland2021-02-03d02t06.flac
     3:40.55       38937404 B   ---   --   ---xx   flac  0.5881  mulholland2021-02-03d02t07.flac
     4:25.54       46873052 B   ---   --   ---xx   flac  0.5519  mulholland2021-02-03d02t08.flac
     3:58.12       42011468 B   ---   --   ---xx   flac  0.5310  mulholland2021-02-03d02t09.flac
     4:49.44       51083132 B   ---   --   ---xx   flac  0.5722  mulholland2021-02-03d02t10.flac
     6:05.19       64430732 B   ---   --   ---xx   flac  0.5600  mulholland2021-02-03d02t11.flac
     5:19.11       56297516 B   ---   --   ---xx   flac  0.5514  mulholland2021-02-03d02t12.flac
     5:16.39       55834172 B   ---   --   ---xx   flac  0.5661  mulholland2021-02-03d02t13.flac
    99:33.62     1053784080 B                            0.5608  (24 files)





More information about the bittorrent mailing list