[bittorrent] GD 9/16/72 [150978] - Partial SBD - Bear - Boston Music Hall - Boston, MA 2444 (GEMS)

Automated Mailer noreply-bt.e at etree.org
Wed Feb 3 22:59:42 UTC 2021


Band:           Grateful Dead
Torrent Name:   GD 9/16/72 [150978] - Partial SBD - Bear - Boston Music Hall - Boston, MA 2444 (GEMS)
Uploaded by:    grv68
DB Link:        
Details:        http://bt.etree.org/details.php?id=611862

Contact the seeder at http://db.etree.org/grv68

If the link to this show does not work, it was probably removed for
being non-trade-friendly.

Description / text file:
-------------------------
Grateful Dead
Saturday September 16, 1972
Boston Music Hall
Boston, Massachusetts

Bear's Reel > Cassette

Cassette (Nakamichi CR-7A) > Tascam DA-3000 > Samplitude Pro X5 > Flac24
Transferred and Mastered by Jim Blackwood with assistance provided by Jamison Waddell
Speed Correction by Jason Chastain

- Beginning of Morning Dew patched with Vault Master Reel to DAT source

Originally aired on 91.3 FM KXCI Tucson on Dead Air,
hosted by Jim Blackwood and Jamie Waddell on July 26, 2020
https://spinitron.com/KXCI/pl/11326111/Dead-Air
and shared to www.shnflac.net

24Bit 44.1kHz FLAC Level 8

Set I (part)
01. //Stella Blue
02. Jack Straw

Set II (part)
03. Morning Dew
04. Greatest Story
05. He's Gone 
06. El Paso
07. Don't Ease Me In

**gems**

    length     expanded size    cdr  WAVE problems  fmt   ratio  filename
     7:50.120     124393832 B   cxx   h-   -----    wav  1.0000  gd1972-09-16t01_Stella Blue.wav
     7:28.053     118554992 B   cxx   h-   -----    wav  1.0000  gd1972-09-16t02_Jack Straw.wav
    12:08.107     192657104 B   cxx   h-   -----    wav  1.0000  gd1972-09-16t03_Morning Dew.wav
     5:46.293      91629296 B   cxx   h-   -----    wav  1.0000  gd1972-09-16t04_Greatest Story.wav
    14:54.173     236598344 B   cxx   h-   -----    wav  1.0000  gd1972-09-16t05_He's Gone .wav
     5:52.693      93322736 B   cxx   h-   -----    wav  1.0000  gd1972-09-16t06_El Paso.wav
     3:56.133      62480960 B   cxx   h-   -----    wav  1.0000  gd1972-09-16t07_Don't Ease Me In.wav
    57:55.573     919637264 B                            1.0000  (7 files)



More information about the bittorrent mailing list