[bittorrent] I-Vibes The Whan Bam Fan Jam St. John's County Fairgrounds St. Augustine, Florida 12/12/2020 (Schoeps CCM4V'S FOB(

Automated Mailer noreply-bt.e at etree.org
Wed Feb 3 22:15:22 UTC 2021


Band:           Other
Torrent Name:   I-Vibes The Whan Bam Fan Jam St. John's County Fairgrounds St. Augustine, Florida 12/12/2020 (Schoeps CCM4V'S FOB(
Uploaded by:    zmanatl
DB Link:        
Details:        http://bt.etree.org/details.php?id=611861

Contact the seeder at http://db.etree.org/zmanatl

If the link to this show does not work, it was probably removed for
being non-trade-friendly.

Description / text file:
-------------------------
I-Vibes
The Whan Bam Fan Jam
St. John's County Fairgrounds
St. Augustine, Florida
12/12/2020

Source: Schoeps CCM4V'S>Lunatec V2>Sound Devices 722 (24/44.1)
FOB/DFC/KFC/ZFC/AARP 9' From Stage, 6 1/2' High
DSP: Sound Devices 722>Sound Forge 10.0>CD Wave>flac(16)
ID3 Tagged In Foobar 2000
Recorded By: Z-Man
Seeded By: Z-Man
A Team Dirty South Recording

Disc I 

01 ?
02 ?
03 ? >
04 ?
05 One Love Maes A Brighter Day
06 Give Me A Little Love
07 On Te Highway >
08 Blaze The Fire
09 *Ja Plan
10 *Roll It Up
11 ?
12 ?
13 HalleluJah
14 ?
15 ?
16 West Virginia
17 Feed The Masses
18 Gimme That Ganga

* With Justin Leduc From Seed From A Tree

ivibes2020-12-12d0110.flac:74bdf802e1c07325621c3e93f7371e9b
ivibes2020-12-12d01t01.flac:3c787e1f72074a03006a71b2f15ec25a
ivibes2020-12-12d01t02.flac:c079c549c432afc6a491c82559c0a0a1
ivibes2020-12-12d01t03.flac:72dfa0e3d95e4baf4793023f5cda39f3
ivibes2020-12-12d01t04.flac:24468f89babbd21df9a131c2ca53184e
ivibes2020-12-12d01t05.flac:397b285c035a84e4edc50c30c1f329ee
ivibes2020-12-12d01t06.flac:640b8265a7300bff6a7efa98e51b4a8b
ivibes2020-12-12d01t07.flac:f8bf95b26eb4452e35fcd65553a55157
ivibes2020-12-12d01t08.flac:ae5b3204b8fd470cb075edd2ddd4ce74
ivibes2020-12-12d01t09.flac:66011639b1065754d4e197924e04707e
ivibes2020-12-12d01t11.flac:cec10244c3d54f5ebbc0f647786ed3a0
ivibes2020-12-12d01t12.flac:b94a8d9ae1f6e227e80dd12f68016708
ivibes2020-12-12d01t13.flac:2d6f9ebb438f8911d752db0aea80ae83
ivibes2020-12-12d01t14.flac:90959559da1daf83e7812a63ca96d38c
ivibes2020-12-12d01t15.flac:4fc8d80b0a037f0612a48720d667635a
ivibes2020-12-12d01t16.flac:55c2ca38ec3454dba14ae1a883a64d25
ivibes2020-12-12d01t17.flac:2bb66e230075b7c05cd8e1a08746e69b
ivibes2020-12-12d01t18.flac:33b2201564e4aef71e79b90595302ab6

 length     expanded size    cdr  WAVE problems  fmt   ratio  filename
     5:40.73       60147740 B   ---   --   ---xx   flac  0.5129  ivibes2020-12-12d0110.flac
     5:28.01       57861596 B   ---   --   ---xx   flac  0.5032  ivibes2020-12-12d01t01.flac
     3:52.21       40974236 B   ---   --   ---xx   flac  0.4933  ivibes2020-12-12d01t02.flac
     3:02.43       32205980 B   ---   --   ---xx   flac  0.4784  ivibes2020-12-12d01t03.flac
     3:12.40       33962924 B   ---   --   ---xx   flac  0.5052  ivibes2020-12-12d01t04.flac
     3:31.24       37276892 B   ---   --   ---xx   flac  0.5128  ivibes2020-12-12d01t05.flac
     6:22.39       67476572 B   ---   --   ---xx   flac  0.5131  ivibes2020-12-12d01t06.flac
     4:14.34       44885612 B   ---   --   ---xx   flac  0.5193  ivibes2020-12-12d01t07.flac
     5:18.63       56243420 B   ---   --   ---xx   flac  0.4623  ivibes2020-12-12d01t08.flac
     3:17.61       34894316 B   ---   --   ---xx   flac  0.5158  ivibes2020-12-12d01t09.flac
     6:09.61       65235116 B   ---   --   ---xx   flac  0.4800  ivibes2020-12-12d01t11.flac
     4:54.60       52002764 B   ---   --   ---xx   flac  0.5273  ivibes2020-12-12d01t12.flac
     3:53.51       41221196 B   ---   --   ---xx   flac  0.5764  ivibes2020-12-12d01t13.flac
     0:00.09          21212 B   --s   --   ---xx   flac  0.6401  ivibes2020-12-12d01t14.flac
     6:13.39       65888972 B   ---   --   ---xx   flac  0.4992  ivibes2020-12-12d01t15.flac
     4:26.17       46962428 B   ---   --   ---xx   flac  0.5117  ivibes2020-12-12d01t16.flac
     4:42.20       49791884 B   ---   --   ---xx   flac  0.5166  ivibes2020-12-12d01t17.flac
     4:30.43       47729180 B   ---   --   ---xx   flac  0.5488  ivibes2020-12-12d01t18.flac
    78:52.24      834782040 B                            0.5093  (18 files)







More information about the bittorrent mailing list