[bittorrent] Unified Mind The Whan Bam Fan Jam St. John's County Fairgrounds St. Augustine, Florida 12/12/2020 (Schoeps CCM4V'S FOB)

Automated Mailer noreply-bt.e at etree.org
Wed Feb 3 18:36:10 UTC 2021


Band:           Other
Torrent Name:   Unified Mind The Whan Bam Fan Jam St. John's County Fairgrounds St. Augustine, Florida 12/12/2020 (Schoeps CCM4V'S FOB)
Uploaded by:    zmanatl
DB Link:        
Details:        http://bt.etree.org/details.php?id=611860

Contact the seeder at http://db.etree.org/zmanatl

If the link to this show does not work, it was probably removed for
being non-trade-friendly.

Description / text file:
-------------------------
Unified Mind
The Whan Bam Fan Jam
St. John's County Fairgrounds
St. Augustine, Florida
12/12/2020

Source: Schoeps CCM4V'S>Lunatec V2>Sound Devices 722 (24/44.1)
FOB/DFC/KFC/ZFC/AARP 9' From Stage, 6 1/2' High
DSP: Sound Devices 722>Sound Forge 10.0>CD Wave>flac(16)
ID3 Tagged In Foobar 2000
Recorded By: Z-Man
Seeded By: Z-Man
A Team Dirty South Recording

Disc I 

01 Greeting
02 ?
03 Weatherman
04 Never Let It Rain
05 Some Of The Power
06 Cool Kids
07 Dance In Flames
08 Edibles
09 Doghouse
10 The Song
11 Follow The Lion 
12 Bad Habits >
13 First Degree

unified2020-12-12d01t01.flac:cc9c097164bced384bf5732acf7140cd
unified2020-12-12d01t02.flac:061bafa4407ea15bcd874f7d8d67dfad
unified2020-12-12d01t03.flac:ec15af9f9841c03d1fa253f338078872
unified2020-12-12d01t04.flac:310d32dc8ebe01f925350e86da291d9c
unified2020-12-12d01t05.flac:39cf986cc90084196f09807baeb6683d
unified2020-12-12d01t06.flac:9c2dd57891cfb86f97aa48c6f3082ff3
unified2020-12-12d01t07.flac:a739f9cbb9580857317c35f61a59f517
unified2020-12-12d01t08.flac:ab640cd11f09c4e38c1e68007ce6fb12
unified2020-12-12d01t09.flac:b4c0b2fff4fed4112e6c4bc15d527651
unified2020-12-12d01t10.flac:78b13ad7ed3b864ba3e47ca1c46755d6
unified2020-12-12d01t11.flac:9bb225c884fc57797dae25c9b97d8ab3
unified2020-12-12d01t12.flac:c1db089abec2d59961674773e09d3de8
unified2020-12-12d01t13.flac:a66843bcd99553bd428825f843ffbfe1

length     expanded size    cdr  WAVE problems  fmt   ratio  filename
     0:11.48        2053340 B   ---   --   ---xx   flac  0.2311  unified2020-12-12d01t01.flac
     5:28.71       58026236 B   ---   --   ---xx   flac  0.5033  unified2020-12-12d01t02.flac
     3:47.43       40143980 B   ---   --   ---xx   flac  0.5002  unified2020-12-12d01t03.flac
     3:31.58       37356860 B   ---   --   ---xx   flac  0.5514  unified2020-12-12d01t04.flac
     4:02.02       42693548 B   ---   --   ---xx   flac  0.4807  unified2020-12-12d01t05.flac
     3:14.20       34268684 B   ---   --   ---xx   flac  0.4724  unified2020-12-12d01t06.flac
     3:06.21       32859836 B   ---   --   ---xx   flac  0.5026  unified2020-12-12d01t07.flac
     3:36.11       38128316 B   ---   --   ---xx   flac  0.4746  unified2020-12-12d01t08.flac
     3:13.35       34127564 B   ---   --   ---xx   flac  0.4941  unified2020-12-12d01t09.flac
     3:50.27       40635548 B   ---   --   ---xx   flac  0.4913  unified2020-12-12d01t10.flac
     3:38.69       38617532 B   ---   --   ---xx   flac  0.4819  unified2020-12-12d01t11.flac
     3:54.14       41310572 B   ---   --   ---xx   flac  0.5144  unified2020-12-12d01t12.flac
     4:31.21       47853836 B   ---   --   ---xx   flac  0.4867  unified2020-12-12d01t13.flac
    46:06.65      488075852 B                            0.4951  (13 files)









More information about the bittorrent mailing list