[bittorrent] Grasshound Steady Hand Beer Co. Atlanta, Georgia 1/30/2021 (Schoeps CCM4V'S FOB)

Automated Mailer noreply-bt.e at etree.org
Mon Feb 1 23:49:27 UTC 2021


Band:           Other
Torrent Name:   Grasshound Steady Hand Beer Co. Atlanta, Georgia 1/30/2021 (Schoeps CCM4V'S FOB)
Uploaded by:    zmanatl
DB Link:        
Details:        http://bt.etree.org/details.php?id=611850

Contact the seeder at http://db.etree.org/zmanatl

If the link to this show does not work, it was probably removed for
being non-trade-friendly.

Description / text file:
-------------------------
Grasshound
Steady Hand Beer Co.
Atlanta, Georgia
1/30/2021

Source: Schoeps CCM4V'S>Lunatec V2>Sound Devices 722 (24/44.1)
FOB/DFC/KFC/ZFC/AARP 6' From Stage, 5 1/2' High
DSP Sound Devices 722>Sound Forge 10.0>CD Wave>flac(16)
ID3 Tagged In Foobar 2000
Recorded By: Z-Man
Seeded By: Z-Man
A Team Dirty South Recording

Disc I 1st Set

Soundcheck:
01 *Georgia Pines/Tuning
1st Set:
02 Steam-Powered Aireoplane
03 Whiskey Before Breakfaast 
04 Big Spike Hammer
05 *Eat My Dust
06 Georgia Pines
07 *Nandina
08 *Cherry Pickin' 
09 *Summertime
10 *Catfish John
11 *Swing 42
12 Good Ol' Mountain Dew
13 *Pickin' In The Wind
14 Shady Grove

Disc II 2nd Set

01 *Lonesome Ranger
02 Soldiers Joy
03 *Doc And Dawg
04 High On A Mountain Top
05 *Rosalee McFall
06 PBR
07 Jam >
08 Rabbit in A Log
09 *Minor Swing
10 *Yippee
11 #Sinner
12 #?
13 #Where O Where Did My Good Doggie Go
14 #I'm Gonna Be A Cowboy In The City

This Was Grasshound's Second Show Ever As A Three Piece Band!

* First Time Played
# Brent Solo

Brent Bolde - Acoustic Guitar And Vocals  
Marc Lineberger - Mandolin And Vocals
Sam Kempe - Bass And Vocals

grasshound2021-01-30d01t01.flac:6ea4bcf1e99d733d6a8f4b580b3a1b97
grasshound2021-01-30d01t02.flac:de64c9306c0ab4a261b056e67627c761
grasshound2021-01-30d01t03.flac:464b2df04959e6d690a6f403d5203131
grasshound2021-01-30d01t04.flac:b830b637eead5157718dd179bf4cd01d
grasshound2021-01-30d01t05.flac:2a637e093670d8e14c0360a56fa25aaf
grasshound2021-01-30d01t06.flac:f8b51bc1df5c83221bdbf4eec24d82b9
grasshound2021-01-30d01t07.flac:bc902c0097c98e115c084011e633bb20
grasshound2021-01-30d01t08.flac:ede4b67edc46f13388f069644fd21359
grasshound2021-01-30d01t09.flac:e66d7e5b4cccddbb74433a576e9ccfa3
grasshound2021-01-30d01t10.flac:634f85368ce36e6783693fabd2ee8f08
grasshound2021-01-30d01t11.flac:e41c86feb6b3ccd80ce4993386fc814f
grasshound2021-01-30d01t12.flac:47e39fe39049bf0984247b32d11961ae
grasshound2021-01-30d01t13.flac:ee507d5ad7a23c7992c3b02513bed36c
grasshound2021-01-30d01t14.flac:5c2826872bf553c1eb398c9faaf88990
grasshound2021-01-30d02t01.flac:e44df2519cdf5dcbf4ff9166b1455adb
grasshound2021-01-30d02t02.flac:0788e545d1284a91493c73a9e881c0d0
grasshound2021-01-30d02t03.flac:5443c6857ab4cb56b13afee342f5c7ad
grasshound2021-01-30d02t04.flac:f8ea7a0e090638a251d973875215191f
grasshound2021-01-30d02t05.flac:9f6f84b5162de3c6008b2caf179f5632
grasshound2021-01-30d02t06.flac:1d622804c5af4443d1fc7a1403cc94bd
grasshound2021-01-30d02t07.flac:463a1b74adbbb998121a47c851aaeaa7
grasshound2021-01-30d02t08.flac:98813b6dd4cf23d8049140a1bfc251cf
grasshound2021-01-30d02t09.flac:75a4cd18495a8a4e975f038521c2f031
grasshound2021-01-30d02t10.flac:2db20980453b2f3f06fa88d51b4b5c1b
grasshound2021-01-30d02t11.flac:e9015b4883120f3455822389e17b4388
grasshound2021-01-30d02t12.flac:e8ab833e98c579918076500301d8fe51
grasshound2021-01-30d02t13.flac:650bc9565a757797c8e1ce552992b8c9
grasshound2021-01-30d02t14.flac:4b1d057b2419132c3c33189f63fa8515

length     expanded size    cdr  WAVE problems  fmt   ratio  filename
     5:43.61       60648716 B   ---   --   ---xx   flac  0.3609  grasshound2021-01-30d01t01.flac
     5:50.60       61881164 B   ---   --   ---xx   flac  0.3679  grasshound2021-01-30d01t02.flac
     4:05.28       43283900 B   ---   --   ---xx   flac  0.4039  grasshound2021-01-30d01t03.flac
     3:37.50       38396444 B   ---   --   ---xx   flac  0.4085  grasshound2021-01-30d01t04.flac
     3:32.12       37425068 B   ---   --   ---xx   flac  0.4295  grasshound2021-01-30d01t05.flac
     3:58.64       42133772 B   ---   --   ---xx   flac  0.4194  grasshound2021-01-30d01t06.flac
     5:06.51       54098396 B   ---   --   ---xx   flac  0.4100  grasshound2021-01-30d01t07.flac
     3:06.00       32810444 B   ---   --   ---xx   flac  0.3900  grasshound2021-01-30d01t08.flac
     6:17.47       66613388 B   ---   --   ---xx   flac  0.3557  grasshound2021-01-30d01t09.flac
     5:43.50       60622844 B   ---   --   ---xx   flac  0.4341  grasshound2021-01-30d01t10.flac
     4:00.21       42385436 B   ---   --   ---xx   flac  0.3949  grasshound2021-01-30d01t11.flac
     4:34.26       48394796 B   ---   --   ---xx   flac  0.4050  grasshound2021-01-30d01t12.flac
     5:07.31       54227756 B   ---   --   ---xx   flac  0.4120  grasshound2021-01-30d01t13.flac
     4:18.42       45610028 B   ---   --   ---xx   flac  0.4175  grasshound2021-01-30d01t14.flac
     3:44.01       39515996 B   ---   --   ---xx   flac  0.4249  grasshound2021-01-30d02t01.flac
     3:17.62       34896668 B   ---   --   ---xx   flac  0.4025  grasshound2021-01-30d02t02.flac
     2:59.38       31665020 B   ---   --   ---xx   flac  0.3855  grasshound2021-01-30d02t03.flac
     6:16.52       66448748 B   ---   --   ---xx   flac  0.3632  grasshound2021-01-30d02t04.flac
     3:23.03       35816300 B   ---   --   ---xx   flac  0.3830  grasshound2021-01-30d02t05.flac
     2:47.23       29512940 B   ---   --   ---xx   flac  0.4221  grasshound2021-01-30d02t06.flac
     2:08.30       22649804 B   ---   --   ---xx   flac  0.2923  grasshound2021-01-30d02t07.flac
     3:37.47       38389388 B   ---   --   ---xx   flac  0.4044  grasshound2021-01-30d02t08.flac
     3:39.58       38768060 B   ---   --   ---xx   flac  0.3744  grasshound2021-01-30d02t09.flac
     3:56.36       41715116 B   ---   --   ---xx   flac  0.3865  grasshound2021-01-30d02t10.flac
     4:05.39       43309772 B   ---   --   ---xx   flac  0.3388  grasshound2021-01-30d02t11.flac
     4:58.65       52720124 B   ---   --   ---xx   flac  0.3067  grasshound2021-01-30d02t12.flac
     4:32.00       47980844 B   ---   --   ---xx   flac  0.3383  grasshound2021-01-30d02t13.flac
     3:14.31       34294556 B   ---   --   ---xx   flac  0.3595  grasshound2021-01-30d02t14.flac
   117:44.53     1246215488 B                            0.3850  (28 files)






More information about the bittorrent mailing list