[bittorrent] jg1987-10-30.151630.jgab.jgb.1st-gen.aud.flac2448

Automated Mailer noreply-bt.e at etree.org
Mon Feb 1 00:41:12 UTC 2021


Band:           Garcia
Torrent Name:   jg1987-10-30.151630.jgab.jgb.1st-gen.aud.flac2448
Uploaded by:    nfagdtrfb
DB Link:        
Details:        http://bt.etree.org/details.php?id=611843

Contact the seeder at http://db.etree.org/nfagdtrfb

If the link to this show does not work, it was probably removed for
being non-trade-friendly.

Description / text file:
-------------------------
JERRY GARCIA BAND
Lunt-Fontanne Theatre
New York NY
10-30-1987

s1t01 /Deep Elem Blues
s1t02 I'm Troubled
s1t03 Ballad of Casey Jones
s1t04 I Ain't Never
s1t05 Gone Home
s1t06 band intros
s1t07 Diamond Joe
s1t08 It's a Long Long Way to the Top of the World
s1t09 If I Lose
s1t10 Ragged but Right

s2t01 Cats Under the Stars
s2t02 Forever Young
s2t03 Stop That Train
s2t04 Think
s2t05 Evangeline
s2t06 The Harder They Come
s2t07 My Sisters & Brothers
s2t08 That Lucky Old Sun
s2t09 Tangled Up in Blue
s2t10 Encore: And It Stoned Me

Source: Nakamichi CM-300 w/CP-1 caps > Sony TC-D5 > MAC, 5th row 
balcony left; 1st Gen cassettes, kindly provided by Doug Lamarre.

Transfer: XLII > Nakamichi CR-5A > Edirol FA-66 > Wavelab 2448 > 
CD-Wave (24bit output) > TLH > FLAC 2448 tagged. Transferred by 
Andrew F. 01/2021

Note: Patches from ID-80695, crowd end of THTC 10:41 > 10:47, and 
AISM 3:23 > 6:40 (end of song). Thanks to CBass for assistance.

    length     expanded size    cdr  WAVE problems  fmt   ratio  filename
     6:24.947     110864684 B   cxx   --   ---xx   flac  0.7498  jgb1987-10-30s1t01.flac
     4:36.893      79745324 B   cxx   --   ---xx   flac  0.7414  jgb1987-10-30s1t02.flac
     5:57.107     102846764 B   cxx   --   ---xx   flac  0.7324  jgb1987-10-30s1t03.flac
     4:46.680      82563884 B   cxx   --   ---xx   flac  0.7416  jgb1987-10-30s1t04.flac
     4:48.187      82997804 B   cxx   --   ---xx   flac  0.7339  jgb1987-10-30s1t05.flac
     1:55.960      33396524 B   cxx   --   ---xx   flac  0.7451  jgb1987-10-30s1t06.flac
     3:54.333      67488044 B   cxx   --   ---xx   flac  0.7517  jgb1987-10-30s1t07.flac
     4:33.307      78712364 B   cxx   --   ---xx   flac  0.7318  jgb1987-10-30s1t08.flac
     2:37.133      45254444 B   cxx   --   ---xx   flac  0.7522  jgb1987-10-30s1t09.flac
     5:14.813      90666224 B   cxx   --   ---xx   flac  0.7541  jgb1987-10-30s1t10.flac
    10:21.507     178993964 B   cxx   --   ---xx   flac  0.7404  jgb1987-10-30s2t01.flac
    10:51.453     187618604 B   cxx   --   ---xx   flac  0.7398  jgb1987-10-30s2t02.flac
     8:52.160     153262124 B   cxx   --   ---xx   flac  0.7402  jgb1987-10-30s2t03.flac
     7:24.667     128064044 B   cxx   --   ---xx   flac  0.7592  jgb1987-10-30s2t04.flac
     3:43.293      64308524 B   cxx   --   ---xx   flac  0.7614  jgb1987-10-30s2t05.flac
    10:50.680     187395884 B   cxx   --   ---xx   flac  0.7566  jgb1987-10-30s2t06.flac
     4:33.307      78712364 B   cxx   --   ---xx   flac  0.7446  jgb1987-10-30s2t07.flac
    11:32.267     199372844 B   cxx   --   ---xx   flac  0.7359  jgb1987-10-30s2t08.flac
    11:37.627     200916524 B   cxx   --   ---xx   flac  0.7563  jgb1987-10-30s2t09.flac
     6:40.407     115317176 B   cxx   --   ---xx   flac  0.7388  jgb1987-10-30s2t10.flac
   131:16.726    2268498112 B                            0.7452  (20 files)

No errors occured.




More information about the bittorrent mailing list