[bittorrent] Barry Richman Blues Jam - Wavetree! The Rusty Barrel Marietta, Georgia 4/29/2021 (Schoeps CCM4V'S FOB)

Automated Mailer noreply-bt.e at etree.org
Fri Apr 30 03:15:41 UTC 2021


Band:           Other
Torrent Name:   Barry Richman Blues Jam - Wavetree! The Rusty Barrel Marietta, Georgia 4/29/2021 (Schoeps CCM4V'S FOB)
Uploaded by:    zmanatl
DB Link:        
Details:        http://bt.etree.org/details.php?id=612558

Contact the seeder at http://db.etree.org/zmanatl

If the link to this show does not work, it was probably removed for
being non-trade-friendly.

Description / text file:
-------------------------
Barry Richman Blues Jam - Wavetree!
The Rusty Barrel
Marietta, Georgia
4/29/2021

Source: Schoeps CCM4V'S>Lunatec V2>Sound Devices 722 (24/44.1)
FOB/DFC/KFC/ZFC/AARP 8' From Stage, 6 1/2' High
DSP: Sound Devices 722>Sound Forge 10.0>CD Wave>flac(16)
ID3 Tagged In Foobar 2000
Recorded By: Z-Man
Seeded By: Z-Man
A Team Dirty South Recording

Disc I 

01 Greeting/Banter
02 Magnolia
03 A Quitter Never Wins
04 Business As Usual
05 Hot 'Lanta
06 Mistreated 
07 Band Introductions/Outro

Barry Richman - Guitar 
George Price - Guitar And Vocals  
Dana McCarthy - Bass And Vocals
Charlie Korch - Drums And Vocals

barry2021-04-29d01t01.flac:c850d5499a3c6f7d14871ddbcadcc895
barry2021-04-29d01t02.flac:a543eae93ab6c3412a8f4e920a2c7710
barry2021-04-29d01t03.flac:bb39ffc86b1d809c038afbd4a97e9344
barry2021-04-29d01t04.flac:c9972fabdeff9babf4e87c32146ce02d
barry2021-04-29d01t05.flac:3cf45e7ba1cf6be97602d5b77ae274e5
barry2021-04-29d01t06.flac:3899a6ac51a436bb6dc26c74ae3495c2
barry2021-04-29d01t07.flac:dd118cb2d15f557484bacead810659ed

length     expanded size    cdr  WAVE problems  fmt   ratio  filename
     3:41.42       39083228 B   ---   --   ---xx   flac  0.3193  barry2021-04-29d01t01.flac
     7:22.01       77971196 B   ---   --   ---xx   flac  0.4752  barry2021-04-29d01t02.flac
     7:09.57       75809708 B   ---   --   ---xx   flac  0.4644  barry2021-04-29d01t03.flac
     5:48.42       61486028 B   ---   --   ---xx   flac  0.5297  barry2021-04-29d01t04.flac
     5:28.28       57925100 B   ---   --   ---xx   flac  0.5251  barry2021-04-29d01t05.flac
     8:00.44       84775532 B   ---   --   ---xx   flac  0.5334  barry2021-04-29d01t06.flac
     1:08.18       12037580 B   ---   --   ---xx   flac  0.3446  barry2021-04-29d01t07.flac
    38:39.07      409088372 B                            0.4818  (7 files)




More information about the bittorrent mailing list