[bittorrent] gr8FL dude & Token Rhyme Ryan Marcus' House Sandy Springs, Georgia 4/27/2021 (Schoeps CCM4V'S FOB)

Automated Mailer noreply-bt.e at etree.org
Wed Apr 28 19:48:59 UTC 2021


Band:           Other
Torrent Name:   gr8FL dude & Token Rhyme Ryan Marcus' House Sandy Springs, Georgia 4/27/2021 (Schoeps CCM4V'S FOB)
Uploaded by:    zmanatl
DB Link:        
Details:        http://bt.etree.org/details.php?id=612549

Contact the seeder at http://db.etree.org/zmanatl

If the link to this show does not work, it was probably removed for
being non-trade-friendly.

Description / text file:
-------------------------
gr8FL dude & Token Rhyme
Ryan Marcus' House
Sandy Springs, Georgia
4/27/2021

Source: Schoeps CCM4V'S>Lunatec V2>Sound Devices 722 (24/44.1)
FOB/DFC/KFC/ZFC/AARP 6' From Stage, 6 1/2' High
DSP: Sound Devices 722>Sound Forge 10.0>CD Wave>flac(16)
ID3 Tagged In Foobar 2000
Recorded By: Z-Man
Seeded By: Z-Man
A Team Dirty South Recording

Disc I 

01 Bertha
02 Jack Straw 
03 Southern Bluez
04 Hey Pockey Way 
05 Althea
06 Eyes Of The World >
07 Fact Of Life

Lewis Newmark - Guitar And Vocals
Diane Rabson - Keyboards And Vocals 
Tommy Jones - Bass 
Ryan Marcus - Drums

gr8fl2021-04-27d01t01.flac:383bb17a968aa49cc59a07a2e8ccf693
gr8fl2021-04-27d01t02.flac:49919a5c6d3f3770d39f67ebac7aff04
gr8fl2021-04-27d01t03.flac:686530da33e82b48055212f96bb2f5b6
gr8fl2021-04-27d01t04.flac:e2aa18b86de340448af5a57a34528901
gr8fl2021-04-27d01t05.flac:9f717d297a411d958ccd0a341313f27e
gr8fl2021-04-27d01t06.flac:0100e407d2a424690b161cb681aed0aa
gr8fl2021-04-27d01t07.flac:094b99e9e879afed61ac976c72bb0a8c

length     expanded size    cdr  WAVE problems  fmt   ratio  filename
     8:10.24       86492492 B   ---   --   ---xx   flac  0.5465  gr8fl2021-04-27d01t01.flac
     6:55.39       73297772 B   ---   --   ---xx   flac  0.5612  gr8fl2021-04-27d01t02.flac
    10:51.21      114885836 B   ---   --   ---xx   flac  0.5272  gr8fl2021-04-27d01t03.flac
     5:54.13       62476220 B   ---   --   ---xx   flac  0.5593  gr8fl2021-04-27d01t04.flac
     8:26.60       89399564 B   ---   --   ---xx   flac  0.5385  gr8fl2021-04-27d01t05.flac
     9:11.44       97299932 B   ---   --   ---xx   flac  0.5403  gr8fl2021-04-27d01t06.flac
     5:32.21       58614236 B   ---   --   ---xx   flac  0.5122  gr8fl2021-04-27d01t07.flac
    55:01.72      582466052 B                            0.5402  (7 files)




More information about the bittorrent mailing list