[bittorrent] Swami Gone Bananas Swami After Dark Live The Treehouse Theatre Tucker, Georgia 4/25/2021 (Schoeps CCM 4V'S FOB)

Automated Mailer noreply-bt.e at etree.org
Tue Apr 27 21:11:14 UTC 2021


Band:           Other
Torrent Name:   Swami Gone Bananas  Swami After Dark Live The Treehouse Theatre  Tucker, Georgia 4/25/2021 (Schoeps CCM 4V'S FOB)
Uploaded by:    zmanatl
DB Link:        
Details:        http://bt.etree.org/details.php?id=612544

Contact the seeder at http://db.etree.org/zmanatl

If the link to this show does not work, it was probably removed for
being non-trade-friendly.

Description / text file:
-------------------------
Swami Gone Bananas 
Swami After Dark Live
The Treehouse Theatre 
Tucker, Georgia
4/25/2021

Source: Schoeps CCM4V'S>Lunatec V2>Sound Devices 722 (24/44.1)
FOB/DFC/KFC/ZFC/AARP 20' From Stage, 6 1/2' High
DSP: Sound Devices 722>Sound Forge 10.0>CD Wave>flac(16)
ID3 Tagged In Foobar 2000
Recorded By: Z-Man
Seeded By: Z-Man
A Team Dirty South Recording

Disc I 

01 Greeting
02 Goin' To California
03 Norwegian Wood
04 Thrift Store Nightmare
05 Shopping For Clothes
06 Dreams
07 Band Introductions
08 Roadhouse Blues
09 She Belongs To Me 

Disc II 

01 People Wanna Be Free
02 *The Inner Light >
03 *It's All Too Much
04 Picture In A Frame 
05 Dire Wolf
06 Maybe I'm Amazed 
07 #Midnight Rider 
08 Ghost Talkin' 
09 Behind Blue Eyes 
10 We Bid You Goodnight

* With Swami On Mandolin
# With Elise On Vocals

Michael "Swami" Schulman - Guitar, Mandolin, And Vocals
JR Hawkins - Percussion And Vocals
Dave"Deuce And A Quarter" Roth - Bass, Melotron, And Vocals 
Richard Hurt - Guitar, Harmonica, And Vocals
Jerry Sorn - Electric Guitar, Acoustic Guitar, Mandolin, Bass, Keyboard, And Vocals
Mike Robbins - Guitar
Bobby Andre - Drums 

swami2021-04-25d01t01.flac:e2e3e85df0bf5fb06b1f4d2d9c8046fc
swami2021-04-25d01t02.flac:f56f88ca4253892deb0a6c271adfb1a6
swami2021-04-25d01t03.flac:1e69332e5328ca3f5a02b796afcaea31
swami2021-04-25d01t04.flac:409424c9fda8e028d8f663ea5529cbe7
swami2021-04-25d01t05.flac:31ccd0e87f8f6083c00ee2d482609bd8
swami2021-04-25d01t06.flac:722c55ed4398fca25a1d27004893f6cb
swami2021-04-25d01t07.flac:b2d685b2af3ccf9724644d2487e60a14
swami2021-04-25d01t08.flac:139f4cf65aa75c6ddc3432b638b1dc95
swami2021-04-25d01t09.flac:af29ebe3ce1a059196a17889d68955c4
swami2021-04-25d02t01.flac:c471bd232558b7cc67795a62804112f0
swami2021-04-25d02t02.flac:17f10e04a6166f5dff78351777fb2b14
swami2021-04-25d02t03.flac:1935e31875a1716138f062361218859d
swami2021-04-25d02t04.flac:4350ad02acc74ef51bce2965fe94cf02
swami2021-04-25d02t05.flac:dcfe73379f95cf87da583737d81a3c9b
swami2021-04-25d02t06.flac:78a6ab8d2e91d7bef28f8a08120c1fc0
swami2021-04-25d02t07.flac:16d8f7028c84ad1527446febb25e525f
swami2021-04-25d02t08.flac:fc237e4bd8f3f0b90a23e2ab02a56002
swami2021-04-25d02t09.flac:81e6818cf9eca41a5b9ff74af9304168
swami2021-04-25d02t10.flac:2b4c2ba49d87753002d9b8024b6dd7e9

 length     expanded size    cdr  WAVE problems  fmt   ratio  filename
     1:05.15       11501324 B   ---   --   ---xx   flac  0.2388  swami2021-04-25d01t01.flac
     6:32.24       69205292 B   ---   --   ---xx   flac  0.4405  swami2021-04-25d01t02.flac
     5:33.27       58804748 B   ---   --   ---xx   flac  0.4345  swami2021-04-25d01t03.flac
     4:59.40       52837724 B   ---   --   ---xx   flac  0.4393  swami2021-04-25d01t04.flac
     7:17.35       77169164 B   ---   --   ---xx   flac  0.3429  swami2021-04-25d01t05.flac
     9:03.28       95851100 B   ---   --   ---xx   flac  0.5486  swami2021-04-25d01t06.flac
     0:27.58        4899260 B   ---   --   ---xx   flac  0.3521  swami2021-04-25d01t07.flac
     4:51.37       51419468 B   ---   --   ---xx   flac  0.4896  swami2021-04-25d01t08.flac
     6:41.26       70797596 B   ---   --   ---xx   flac  0.4424  swami2021-04-25d01t09.flac
     6:15.39       66241772 B   ---   --   ---xx   flac  0.4884  swami2021-04-25d02t01.flac
     2:57.58       31359260 B   ---   --   ---xx   flac  0.4461  swami2021-04-25d02t02.flac
     6:27.19       68311532 B   ---   --   ---xx   flac  0.4399  swami2021-04-25d02t03.flac
     3:03.27       32344748 B   ---   --   ---xx   flac  0.3870  swami2021-04-25d02t04.flac
     4:04.20       43088684 B   ---   --   ---xx   flac  0.4405  swami2021-04-25d02t05.flac
     5:51.07       61932908 B   ---   --   ---xx   flac  0.4598  swami2021-04-25d02t06.flac
     5:36.50       59388044 B   ---   --   ---xx   flac  0.5077  swami2021-04-25d02t07.flac
     4:38.17       49079228 B   ---   --   ---xx   flac  0.4292  swami2021-04-25d02t08.flac
     3:57.71       41973836 B   ---   --   ---xx   flac  0.4724  swami2021-04-25d02t09.flac
     2:57.56       31354556 B   ---   --   ---xx   flac  0.4259  swami2021-04-25d02t10.flac
    92:21.54      977560244 B                            0.4501  (19 files)








More information about the bittorrent mailing list