[bittorrent] Josh Daniel And Lefty Best End Brewing Company Atlanta, Georgia 4/24/2021 (Schoeps CCM4V'S FOB)

Automated Mailer noreply-bt.e at etree.org
Sun Apr 25 13:35:25 UTC 2021


Band:           Other
Torrent Name:   Josh Daniel And Lefty  Best End Brewing Company Atlanta, Georgia 4/24/2021 (Schoeps CCM4V'S FOB)
Uploaded by:    zmanatl
DB Link:        
Details:        http://bt.etree.org/details.php?id=612529

Contact the seeder at http://db.etree.org/zmanatl

If the link to this show does not work, it was probably removed for
being non-trade-friendly.

Description / text file:
-------------------------
Josh Daniel And Lefty 
Best End Brewing Company
Atlanta, Georgia
4/24/2021

Source: Schoeps CCM4V'S>Lunatec V2>Sound Devices 722 (24/44.1)
FOB/DFC/KFC/ZFC/AARP 6' From Stage, 6 1/2' High
DSP: Sound Devices 722>Sound Forge 10.0>CD Wave>flac(16)
ID3 Tagged In Foobar 2000
Recorded By: Z-Man
Seeded By: Z-Man
A Team Dirty South Recording

Disc I 1st Set

01 Greetig
02 I'm A Ram
03 Travelin' Song
04 Throw A Little Light My Way >
05 Hey Pockey Way
06 Eyes Of The World >
07 New Minglewood Blues
08 ?
09 Althea
10 *#Live Long Day 

Disc II 2nd Set

01 Banter
02 ? 
03 ?
04 @Stop That Train 
05 @Workingman's Song
06 @? >
07 @That's What Love Will Make You Do >
08 @Sexy Mother Fucker >
09 @The Wheel >
10 *@This Time You've Gone Too Far >
11 @? 
12 @Shakedown Street

* With Matthew "Lefty" On Harmonica
# With Fed Hot Mama Tease
@ With JP On Drums

Josh Daniel - Guitar And Vocals
Justin Powell - Bass And Vocals

Josh2021-04-24d01t01.flac:b85cccd64517639fc6a03ae25c0dbb5c
Josh2021-04-24d01t02.flac:8e3f0af4c78a001b68a2157c8af04946
Josh2021-04-24d01t03.flac:7f766ded99a93eb667cf645f97e01463
Josh2021-04-24d01t04.flac:950347c5d384b9bd8385aa8626852b01
Josh2021-04-24d01t05.flac:278dbb23e041543b368c3868490282e4
Josh2021-04-24d01t06.flac:0e33a475dff631cc43cf1652e84c2e49
Josh2021-04-24d01t07.flac:a83d78eb0c35a58a741f94911c52c36e
Josh2021-04-24d01t08.flac:7cfea3cc5e4d531d741f9a00258fe722
Josh2021-04-24d01t09.flac:bb57ab24a97c6d978d2d22666c942c91
Josh2021-04-24d01t10.flac:71999a8aa72bcc7b0e284cc3c5c8427e
Josh2021-04-24d02t01.flac:ca4fccf39efd4f8b3a37e5f21b060f47
Josh2021-04-24d02t02.flac:bfbcb41d439b3e8bed208f9ea55715db
Josh2021-04-24d02t03.flac:bf098be1a308f9d34efeb029c752c7cc
Josh2021-04-24d02t04.flac:149dfc09adf9f9dc62cdf49fadeb1a88
Josh2021-04-24d02t05.flac:bd9cccddb9cd70173660bcabd894f72b
Josh2021-04-24d02t06.flac:c7f0ea6903b059dc8de0fb780623c614
Josh2021-04-24d02t07.flac:a006864c426667175be83bf330b17f48
Josh2021-04-24d02t08.flac:50b7835585516ad58ee3e7f20583ad3c
Josh2021-04-24d02t09.flac:0da154bfd232d1029e06418d66a4a200
Josh2021-04-24d02t10.flac:0ebc1398456f6ddfc43b6dfd2f8ca598
Josh2021-04-24d02t11.flac:83514c79a5c51e0660eac419ad5cc9fa
Josh2021-04-24d02t12.flac:c61931501204e485e17a72bcd09a2656

 length     expanded size    cdr  WAVE problems  fmt   ratio  filename
     0:43.38        7674620 B   ---   --   ---xx   flac  0.4533  Josh2021-04-24d01t01.flac
     6:20.29       67100252 B   ---   --   ---xx   flac  0.5126  Josh2021-04-24d01t02.flac
     5:09.30       54578204 B   ---   --   ---xx   flac  0.5204  Josh2021-04-24d01t03.flac
     7:33.72       80078588 B   ---   --   ---xx   flac  0.5256  Josh2021-04-24d01t04.flac
     4:48.71       50970236 B   ---   --   ---xx   flac  0.5156  Josh2021-04-24d01t05.flac
     8:16.70       87659084 B   ---   --   ---xx   flac  0.5278  Josh2021-04-24d01t06.flac
     4:09.22       43975388 B   ---   --   ---xx   flac  0.5410  Josh2021-04-24d01t07.flac
     6:18.07       66695708 B   ---   --   ---xx   flac  0.5382  Josh2021-04-24d01t08.flac
     8:11.09       86633612 B   ---   --   ---xx   flac  0.5071  Josh2021-04-24d01t09.flac
     7:31.47       79666988 B   ---   --   ---xx   flac  0.5156  Josh2021-04-24d01t10.flac
     0:44.51        7881596 B   ---   --   ---xx   flac  0.4679  Josh2021-04-24d02t01.flac
     6:24.40       67831724 B   ---   --   ---xx   flac  0.5196  Josh2021-04-24d02t02.flac
     4:44.17       50137628 B   ---   --   ---xx   flac  0.5382  Josh2021-04-24d02t03.flac
     5:35.33       59171660 B   ---   --   ---xx   flac  0.5462  Josh2021-04-24d02t04.flac
     3:41.55       39113804 B   ---   --   ---xx   flac  0.5762  Josh2021-04-24d02t05.flac
     6:44.42       71364428 B   ---   --   ---xx   flac  0.5914  Josh2021-04-24d02t06.flac
     3:45.12       39718268 B   ---   --   ---xx   flac  0.6278  Josh2021-04-24d02t07.flac
     4:40.05       49403804 B   ---   --   ---xx   flac  0.5384  Josh2021-04-24d02t08.flac
     3:58.13       42013820 B   ---   --   ---xx   flac  0.5711  Josh2021-04-24d02t09.flac
     9:42.33      102742460 B   ---   --   ---xx   flac  0.5885  Josh2021-04-24d02t10.flac
     6:08.02       64919948 B   ---   --   ---xx   flac  0.5552  Josh2021-04-24d02t11.flac
     8:53.26       94082396 B   ---   --   ---xx   flac  0.5815  Josh2021-04-24d02t12.flac
   124:05.49     1313414216 B                            0.5446  (22 files)








More information about the bittorrent mailing list