[bittorrent] gd1984-07-22.152323.sbd.cm.miller.t.flac16

Automated Mailer noreply-bt.e at etree.org
Sun Apr 25 02:40:20 UTC 2021


Band:           Grateful Dead
Torrent Name:   gd1984-07-22.152323.sbd.cm.miller.t.flac16
Uploaded by:    norm
DB Link:        
Details:        http://bt.etree.org/details.php?id=612526

Contact the seeder at http://db.etree.org/norm

If the link to this show does not work, it was probably removed for
being non-trade-friendly.

Description / text file:
-------------------------
Grateful Dead - July 22, 1984
County Fairgrounds - Ventura, CA

Recording Info:
SBD > Cassette Master (Sony TC-D5M)

Transfer Info:
Cassette Master (Nakamichi CR-7A) > Tascam DA-3000 (DSF 1-bit/5.6MHz) >
Sound Forge 13 Pro (WAV 24-bit/96k) > Adobe Audition 2020 > Samplitude Pro X5 Suite > FLAC/24
(1 DVD FLAC)

All Transfers and Mastering by Charlie Miller
charliemiller87 at earthlink.net
April 2, 2021

Notes:
-- Tape flip in Drums covered by a PCM Soundboard
-- Thanks to Joani Walker and Paul Scotton for the tapes
-- 152201 24 > 16 @ 44.1

Set 1:
01 - Tuning
02 - Dancing In The Street >
03 - Bertha
04 - My Brother Esau
05 - Loser
06 - Cassidy
07 - Ramble On Rose
08 - Hell In A Bucket >
09 - Keep Your Day Job

Set 2:
10 - Tuning
11 - Samson And Delilah
12 - Ship Of Fools
13 - I Just Want To Make Love To You >
14 - Man Smart (Woman Smarter)
15 - Terrapin Station >
16 - Drums >
17 - Space >
18 - Morning Dew >
19 - Throwing Stones >
20 - Not Fade Away

Encore:
21 - In The Midnight Hour >
22 - Brokedown Palace


SHNTOOL OUTPUT:
    length     expanded size    cdr  WAVE problems  fmt   ratio  filename
     0:24.17        4273628 B   ---   --   ---xx   flac  0.4846  01 Tuning.flac
     9:02.16       95646476 B   ---   --   ---xx   flac  0.6486  02 Dancing In The Street.flac
     6:41.05       70748204 B   ---   --   ---xx   flac  0.6645  03 Bertha.flac
     4:54.02       51866348 B   ---   --   ---xx   flac  0.6423  04 My Brother Esau.flac
     7:48.69       82717532 B   ---   --   ---xx   flac  0.6130  05 Loser.flac
     7:11.38       76117820 B   ---   --   ---xx   flac  0.6025  06 Cassidy.flac
     7:59.74       84669692 B   ---   --   ---xx   flac  0.6203  07 Ramble On Rose.flac
     6:25.54       68041052 B   ---   --   ---xx   flac  0.6725  08 Hell In A Bucket.flac
     4:27.40       47192924 B   ---   --   ---xx   flac  0.6797  09 Keep Your Day Job.flac
     1:01.02       10765148 B   ---   --   ---xx   flac  0.4882  10 Tuning.flac
     8:08.67       86240828 B   ---   --   ---xx   flac  0.6581  11 Samson And Delilah.flac
     7:16.58       77046860 B   ---   --   ---xx   flac  0.6399  12 Ship Of Fools.flac
     5:00.04       52929452 B   ---   --   ---xx   flac  0.6706  13 I Just Want To Make Love To You.flac
     6:06.26       64623596 B   ---   --   ---xx   flac  0.6784  14 Man Smart (Woman Smarter).flac
    13:10.12      139384268 B   ---   --   ---xx   flac  0.6146  15 Terrapin Station.flac
     8:18.57       87981308 B   ---   --   ---xx   flac  0.5165  16 Drums.flac
    11:05.42      117404828 B   ---   --   ---xx   flac  0.5511  17 Space.flac
    10:42.15      113284124 B   ---   --   ---xx   flac  0.6200  18 Morning Dew.flac
     8:44.38       92523020 B   ---   --   ---xx   flac  0.6403  19 Throwing Stones.flac
    10:39.06      112733756 B   ---   --   ---xx   flac  0.6051  20 Not Fade Away.flac
     4:07.28       43636700 B   ---   --   ---xx   flac  0.6745  21 In The Midnight Hour.flac
     5:13.08       55232060 B   ---   --   ---xx   flac  0.6143  22 Brokedown Palace.flac
   154:29.03     1635059624 B                            0.6231  (22 files)



More information about the bittorrent mailing list