[bittorrent] gd1984-07-21.152322.sbd.cm.miller.t.flac16

Automated Mailer noreply-bt.e at etree.org
Sun Apr 25 01:02:25 UTC 2021


Band:           Grateful Dead
Torrent Name:   gd1984-07-21.152322.sbd.cm.miller.t.flac16
Uploaded by:    norm
DB Link:        
Details:        http://bt.etree.org/details.php?id=612524

Contact the seeder at http://db.etree.org/norm

If the link to this show does not work, it was probably removed for
being non-trade-friendly.

Description / text file:
-------------------------
Grateful Dead - July 21, 1984
County Fairgrounds - Ventura, CA

Recording Info:
SBD > Cassette Master (Sony TC-D5M/TDK MA-R90)

Transfer Info:
Cassette Master (Nakamichi CR-7A) > Tascam DA-3000 (DSF 1-bit/5.6MHz) >
Sound Forge 13 Pro (WAV 24-bit/96k) > Samplitude Pro X5 Suite > FLAC/24
(1 DVD FLAC)

Patch Info:
(FOB) Schoeps CMC4/MK41 > Cassette Master (shnid=139445) supplies:
Space (0:18 - 0:52)

All Transfers and Mastering by Charlie Miller
charliemiller87 at earthlink.net
April 1, 2021

Notes:
-- First show taped on Joani's new tape deck
-- Shakedown Street mix is all over the place
-- Thanks to Joani Walker and Paul Scotton for the Cassettes
-- Thanks to Robert Bryant, Scott Clugston and the Oade Brothers for the patch source
-- Thanks to Joe B. Jones for confirming the pitch
-- 152178 24 > 16 @ 44.1

Set 1:
01 - Shakedown Street
02 - Little Red Rooster
03 - Althea
04 - Me And My Uncle >
05 - Mexicali Blues
06 - China Cat Sunflower >
07 - I Know You Rider >
08 - Looks Like Rain >
09 - Might As Well

Set 2:
10 - Cold Rain And Snow
11 - Far From Me
12 - Truckin' >
13 - Eyes Of The World >
14 - Drums >
15 - Space >
16 - The Other One >
17 - Stella Blue >
18 - Around And Around ->
19 - One More Saturday Night

Encore:
20 - Touch Of Grey


SHNTOOL OUTPUT:
    length     expanded size    cdr  WAVE problems  fmt   ratio  filename
    13:42.68      145160780 B   ---   --   ---xx   flac  0.6449  01 Shakedown Street.flac
     9:05.33       96215660 B   ---   --   ---xx   flac  0.6456  02 Little Red Rooster.flac
     8:42.58       92217260 B   ---   --   ---xx   flac  0.6469  03 Althea.flac
     3:06.55       32939804 B   ---   --   ---xx   flac  0.6768  04 Me And My Uncle.flac
     5:07.26       54215996 B   ---   --   ---xx   flac  0.6817  05 Mexicali Blues.flac
     4:55.20       52085084 B   ---   --   ---xx   flac  0.6702  06 China Cat Sunflower.flac
     5:32.69       58727132 B   ---   --   ---xx   flac  0.6709  07 I Know You Rider.flac
     9:10.06       97034156 B   ---   --   ---xx   flac  0.6176  08 Looks Like Rain.flac
     4:45.41       50370476 B   ---   --   ---xx   flac  0.7010  09 Might As Well.flac
     7:45.06       82040156 B   ---   --   ---xx   flac  0.6791  10 Cold Rain And Snow.flac
     4:11.03       44283500 B   ---   --   ---xx   flac  0.6872  11 Far From Me.flac
     8:08.23       86137340 B   ---   --   ---xx   flac  0.6866  12 Truckin'.flac
    12:45.11      134971916 B   ---   --   ---xx   flac  0.6856  13 Eyes Of The World.flac
    10:22.34      109800812 B   ---   --   ---xx   flac  0.5087  14 Drums.flac
     6:12.00       65620844 B   ---   --   ---xx   flac  0.5527  15 Space.flac
     9:33.57      101211308 B   ---   --   ---xx   flac  0.6289  16 The Other One.flac
     9:05.74       96312092 B   ---   --   ---xx   flac  0.6140  17 Stella Blue.flac
     3:55.74       41628092 B   ---   --   ---xx   flac  0.6782  18 Around And Around.flac
     4:23.24       46449692 B   ---   --   ---xx   flac  0.6927  19 One More Saturday Night.flac
     6:27.19       68311532 B   ---   --   ---xx   flac  0.6971  20 Touch Of Grey.flac
   146:59.26     1555733632 B                            0.6460  (20 files)




More information about the bittorrent mailing list