[bittorrent] Mulholland Napoleon's Grill Decatur, Georgia 4/23/2021 (Schoeps CCM4V'S FOB)

Automated Mailer noreply-bt.e at etree.org
Sat Apr 24 19:45:50 UTC 2021


Band:           Other
Torrent Name:   Mulholland Napoleon's Grill Decatur, Georgia 4/23/2021 (Schoeps CCM4V'S FOB)
Uploaded by:    zmanatl
DB Link:        
Details:        http://bt.etree.org/details.php?id=612520

Contact the seeder at http://db.etree.org/zmanatl

If the link to this show does not work, it was probably removed for
being non-trade-friendly.

Description / text file:
-------------------------
Mulholland
Napoleon's Grill
Decatur, Georgia
4/23/2021

Source: Schoeps CCM4V'S>Lunatec V2>Sound Devices 722 (24/44.1)
FOB/DFC/KFC/ZFC/AARP 6' From Stage, 6 1/2' High
DSP: Sound Devices 722>Sound Forge 10.0>CD Wave>flac(16)
ID3 Tagged In Foobar 2000
Recorded By: Z-Man
Seeded By: Z-Man
A Team Dirty South Recording

Disc I 1st Set

01 Greeting
02 Listen To Her Heart
03 Don't Do Me Like That >
04 I Won't Back Down
05 Refugee
06 Jammin' Me
07 Breakdown
08 Here Comes My Girl
09 Runnin' Down A Dream
10 You're So Bad
11 End Of The Line
12 Even The Losers
13 Saving Grace
14 Face In The Crowd
15 Last Dance With Mary Jane
16 Free Fallin'
17 You Wreck Me

Disc II 2nd Set

01 Love Is A Lon Road
02 Wrong Thing To Do
03 Scare Easy
04 Swingin'
05 You Don't Know How It Feels
06 Need To Know
07 Good Enough
08 Good To Be King
09 Great Wide Open
10 Handle With Care
11 The Waiting
12 American Girl
Encore:
13 Thanks
14 Learning To Fly

Joe Aranella - Keyboard, Acousic Guitar, Percussion, And Vocals
Joe Benson - Guitar, Harmonica, And Vocals
Scott Hardy - Electric Guitar, Acoustic Guitar, And Vocals
Jeremy "Jerbo" Foti - Bass
Chris Moore - Drums

mulholland2021-04-23d01t01.flac:aaff6b303363dd19604a0a766a19f900
mulholland2021-04-23d01t02.flac:a5f7862a09b9c3ec1d9fd4e9b8ef16af
mulholland2021-04-23d01t03.flac:818cb1d9af6319904d2c55555592736f
mulholland2021-04-23d01t04.flac:e72702ddd0b79c9d75992413614721dc
mulholland2021-04-23d01t05.flac:9bd79a6bbc651c0169661b2ac1e16691
mulholland2021-04-23d01t06.flac:aecf9ac4c4bd2d2a4f8af8dee8be160b
mulholland2021-04-23d01t07.flac:9996ad6335ac21af6067c095b98f25e1
mulholland2021-04-23d01t08.flac:dd9b4ed512a7b82de05e0a7747ff9e82
mulholland2021-04-23d01t09.flac:210851923b606549f3b04a3065ff1ac8
mulholland2021-04-23d01t10.flac:e17b0e9a22c896bcf4f5cc4e02658782
mulholland2021-04-23d01t11.flac:c9cb9b66a4517e5c3e0eb3385042817f
mulholland2021-04-23d01t12.flac:e07e83c7d0930946322b4d9c1f0a2cea
mulholland2021-04-23d01t13.flac:b505f5e4b1403df86c23f258e8ce4b07
mulholland2021-04-23d01t14.flac:9f264ad6ade791935b47d251b61087bb
mulholland2021-04-23d01t15.flac:9b092137e0570a83f121637cced9d724
mulholland2021-04-23d01t16.flac:efa2f8bf0a405b1bc2ee4a610283a6b5
mulholland2021-04-23d01t17.flac:bf06c527f8a5b2f3622fc33bc5c9bf35
mulholland2021-04-23d02t01.flac:9ece036125ee58a6b362d2792fb5f502
mulholland2021-04-23d02t02.flac:208a21434fde43acb4d59d47de42b62c
mulholland2021-04-23d02t03.flac:4e5f81649c5c2cd73d8066d23ba8c9aa
mulholland2021-04-23d02t04.flac:a0901c648ead2318d5166b83af1c9cc7
mulholland2021-04-23d02t05.flac:1bb54d1a8397baf34fae6643facac0a5
mulholland2021-04-23d02t06.flac:2f7e8202652239eb8c2200e2c03002e1
mulholland2021-04-23d02t07.flac:2c2a76bc29c96e8607ca8cf86026f21e
mulholland2021-04-23d02t08.flac:0bb6f3b9614cc30a9ea93f28f378260e
mulholland2021-04-23d02t09.flac:c9c4484e15b918d6788869808b99cfda
mulholland2021-04-23d02t10.flac:a6dad869977e19d1923906ac9d24a917
mulholland2021-04-23d02t11.flac:ec0b4366b83f70ab3a6d4a5df5fb5d8c
mulholland2021-04-23d02t12.flac:51565649ac7087ba107f0936252988e4
mulholland2021-04-23d02t13.flac:d352abc03a64b29c3a0915b820233d3c
mulholland2021-04-23d02t14.flac:e09a7df7d409682e6c9e9261a759d5b4

 length     expanded size    cdr  WAVE problems  fmt   ratio  filename
     1:28.24       15579692 B   ---   --   ---xx   flac  0.3107  mulholland2021-04-23d01t01.flac
     3:22.65       35785724 B   ---   --   ---xx   flac  0.5035  mulholland2021-04-23d01t02.flac
     2:56.25       31105244 B   ---   --   ---xx   flac  0.5930  mulholland2021-04-23d01t03.flac
     4:38.54       49166252 B   ---   --   ---xx   flac  0.5046  mulholland2021-04-23d01t04.flac
     4:44.21       50147036 B   ---   --   ---xx   flac  0.5642  mulholland2021-04-23d01t05.flac
     4:30.12       47656268 B   ---   --   ---xx   flac  0.5963  mulholland2021-04-23d01t06.flac
     5:24.10       57177164 B   ---   --   ---xx   flac  0.5110  mulholland2021-04-23d01t07.flac
     4:40.53       49516700 B   ---   --   ---xx   flac  0.5595  mulholland2021-04-23d01t08.flac
     4:21.37       46127468 B   ---   --   ---xx   flac  0.6569  mulholland2021-04-23d01t09.flac
     3:46.06       39880556 B   ---   --   ---xx   flac  0.5221  mulholland2021-04-23d01t10.flac
     4:30.30       47698604 B   ---   --   ---xx   flac  0.5340  mulholland2021-04-23d01t11.flac
     4:29.00       47451644 B   ---   --   ---xx   flac  0.5791  mulholland2021-04-23d01t12.flac
     4:34.52       48455948 B   ---   --   ---xx   flac  0.5419  mulholland2021-04-23d01t13.flac
     5:15.49       55681292 B   ---   --   ---xx   flac  0.5179  mulholland2021-04-23d01t14.flac
     6:25.36       67998716 B   ---   --   ---xx   flac  0.5769  mulholland2021-04-23d01t15.flac
     6:00.24       63560492 B   ---   --   ---xx   flac  0.4955  mulholland2021-04-23d01t16.flac
     5:13.70       55377884 B   ---   --   ---xx   flac  0.5773  mulholland2021-04-23d01t17.flac
     5:36.21       59319836 B   ---   --   ---xx   flac  0.5562  mulholland2021-04-23d02t01.flac
     4:58.10       52590764 B   ---   --   ---xx   flac  0.5833  mulholland2021-04-23d02t02.flac
     5:28.38       57948620 B   ---   --   ---xx   flac  0.5423  mulholland2021-04-23d02t03.flac
     6:51.17       72540428 B   ---   --   ---xx   flac  0.5418  mulholland2021-04-23d02t04.flac
     5:02.52       53395148 B   ---   --   ---xx   flac  0.5529  mulholland2021-04-23d02t05.flac
     2:45.25       29164844 B   ---   --   ---xx   flac  0.6134  mulholland2021-04-23d02t06.flac
     6:44.32       71340908 B   ---   --   ---xx   flac  0.5350  mulholland2021-04-23d02t07.flac
     5:33.60       58882364 B   ---   --   ---xx   flac  0.5178  mulholland2021-04-23d02t08.flac
     5:37.17       59486828 B   ---   --   ---xx   flac  0.5064  mulholland2021-04-23d02t09.flac
     3:55.06       41468156 B   ---   --   ---xx   flac  0.5838  mulholland2021-04-23d02t10.flac
     4:26.53       47047100 B   ---   --   ---xx   flac  0.5885  mulholland2021-04-23d02t11.flac
     5:08.45       54437084 B   ---   --   ---xx   flac  0.5965  mulholland2021-04-23d02t12.flac
     0:53.22        9400988 B   ---   --   ---xx   flac  0.3777  mulholland2021-04-23d02t13.flac
     5:14.06       55403756 B   ---   --   ---xx   flac  0.5690  mulholland2021-04-23d02t14.flac
   144:37.72     1530793508 B                            0.5498  (31 files)





More information about the bittorrent mailing list