[bittorrent] The Hunt House Acoustic Jam The Hunt House Patio Marietta, Georgia 4/22/2021 (Schoepss CCM4V'S FOB)

Automated Mailer noreply-bt.e at etree.org
Sat Apr 24 15:13:40 UTC 2021


Band:           Other
Torrent Name:   The Hunt House Acoustic Jam The Hunt House Patio  Marietta, Georgia 4/22/2021 (Schoepss CCM4V'S FOB)
Uploaded by:    zmanatl
DB Link:        
Details:        http://bt.etree.org/details.php?id=612518

Contact the seeder at http://db.etree.org/zmanatl

If the link to this show does not work, it was probably removed for
being non-trade-friendly.

Description / text file:
-------------------------
The Hunt House Acoustic Jam
The Hunt House Patio 
Marietta, Georgia
4/22/2021

Source: Schoeps CCM4V'S>Lunatec V2>Sound Devices 722 (24/44.1)
FOB/DFC/KFC/ZFC/AARP Stage Lip, 4' High
DSP: Sound Devices 722>Sound Forge 10.0>CD Wave>flac(16)
ID3 Tagged In Foobar 2000
Recorded By: Z-Man
Seeded By: Z-Man
A Team Dirty South Recording

Disc I 

01 New Minglewood Blues
02 Leanin' Towards Atlanta
03 The Pretender
04 Time
05 Long Black Veil
06 Sympathy For The Devil
07 All Along The Watchtower
08 Love Scar
09 Can't You See
10 Walkin' Boss
11 Long-Haired Country Boy
12 Three Little Birds
13 Redemption Song
14 The Songwriter
15 I Drive Your Truck
16 Tennessee Waltz
17 Lay Down Sally

Marc Summers - Acoustic Guitar And Vocals
Jerry Holsonback - Acoustic Guitar And Vocals
Paul Long - Acoustic Guitar And Vocals
Alan Dingus - Acoustic Guitar And Vocals
Pete Charlton - Acoustic Guitar And Vocals
Bob Newton - Percussion And Vocals
Z-Man And April - Ambient Background Vocals

thehunt2021-04-22d01t01.flac:c5f4b43f0ea0115deb5d93673560b91f
thehunt2021-04-22d01t02.flac:898ff2e16b90fa7208108dba94c66aa3
thehunt2021-04-22d01t03.flac:0fd4149faf498054acc1ef422b2bb484
thehunt2021-04-22d01t04.flac:47a7a76269eb9d23c6313c9c3ede2cd2
thehunt2021-04-22d01t05.flac:18fdd16ae1605ee4761a0b3edd3c0b30
thehunt2021-04-22d01t06.flac:ce87c87eab31a05657b6310cad342fa6
thehunt2021-04-22d01t07.flac:f4179bdea02ef2f87ec05456ca035ea0
thehunt2021-04-22d01t08.flac:6b16539de595f36ec981d2dcd99e3cbb
thehunt2021-04-22d01t09.flac:8190cecaef012a6d562a3e08efdb982b
thehunt2021-04-22d01t10.flac:ff3a4e390d8d4d38e8c3a1de368221ed
thehunt2021-04-22d01t11.flac:49f92c8843641c16c8f104bd620d662c
thehunt2021-04-22d01t12.flac:3e1328a2556928d54626fe6a92a7fa1f
thehunt2021-04-22d01t13.flac:2456e22aac194c4929400a8596f2e6c5
thehunt2021-04-22d01t14.flac:ad3e578cb8ef5f35c11eb87ee5168ab5
thehunt2021-04-22d01t15.flac:b57162ba26a3064730aff585587475fd
thehunt2021-04-22d01t16.flac:e4962fdc6df1921d9ce1253320d54264
thehunt2021-04-22d01t17.flac:522da08b3702dc37bf5ee13dbffe2250

length     expanded size    cdr  WAVE problems  fmt   ratio  filename
     6:18.21       66728636 B   ---   --   ---xx   flac  0.4592  thehunt2021-04-22d01t01.flac
     4:43.00       49921244 B   ---   --   ---xx   flac  0.4521  thehunt2021-04-22d01t02.flac
     6:17.00       66502844 B   ---   --   ---xx   flac  0.4302  thehunt2021-04-22d01t03.flac
     3:33.31       37646156 B   ---   --   ---xx   flac  0.4519  thehunt2021-04-22d01t04.flac
     4:33.08       48176060 B   ---   --   ---xx   flac  0.4769  thehunt2021-04-22d01t05.flac
     6:48.14       72004172 B   ---   --   ---xx   flac  0.5417  thehunt2021-04-22d01t06.flac
     4:52.70       51673484 B   ---   --   ---xx   flac  0.4912  thehunt2021-04-22d01t07.flac
     4:20.20       45911084 B   ---   --   ---xx   flac  0.4283  thehunt2021-04-22d01t08.flac
     4:53.50       51802844 B   ---   --   ---xx   flac  0.5140  thehunt2021-04-22d01t09.flac
     3:28.40       36785324 B   ---   --   ---xx   flac  0.4575  thehunt2021-04-22d01t10.flac
     4:24.47       46680188 B   ---   --   ---xx   flac  0.4874  thehunt2021-04-22d01t11.flac
     4:08.00       43747244 B   ---   --   ---xx   flac  0.5040  thehunt2021-04-22d01t12.flac
     4:06.15       43429724 B   ---   --   ---xx   flac  0.4802  thehunt2021-04-22d01t13.flac
     6:28.12       68471468 B   ---   --   ---xx   flac  0.3941  thehunt2021-04-22d01t14.flac
     3:38.00       38455244 B   ---   --   ---xx   flac  0.4794  thehunt2021-04-22d01t15.flac
     3:04.06       32471756 B   ---   --   ---xx   flac  0.4380  thehunt2021-04-22d01t16.flac
     4:19.44       45791132 B   ---   --   ---xx   flac  0.4905  thehunt2021-04-22d01t17.flac
    79:57.03      846198604 B                            0.4692  (17 files)






More information about the bittorrent mailing list