[bittorrent] Tyler Neal Band The Northside Tavern Atlanta, Georgia 4/21/2021 (Schoeps CCM4V'S FOB)

Automated Mailer noreply-bt.e at etree.org
Fri Apr 23 17:44:09 UTC 2021


Band:           Other
Torrent Name:   Tyler Neal Band The Northside Tavern  Atlanta, Georgia 4/21/2021 (Schoeps CCM4V'S FOB)
Uploaded by:    zmanatl
DB Link:        
Details:        http://bt.etree.org/details.php?id=612515

Contact the seeder at http://db.etree.org/zmanatl

If the link to this show does not work, it was probably removed for
being non-trade-friendly.

Description / text file:
-------------------------
Tyler Neal Band
The Northside Tavern 
Atlanta, Georgia
4/21/2021

Source: Schoeps CCM4V'S>Lunatec V2>Sound Devices 722 (24/44.1)
FOB/DFC/KFC/ZFC/AARP 10' From Stage, 6 1/2' High
DSP: Sound Devices 722>Sound Forge 10.0>CD Wave>flac(16)
ID3 Tagged In Foobar 2000
Recorded By: Z-Man
Seeded By: Z-Man
A Team Dirty South Recording

Disc I 

Soundcheck:
01 
Set:
02 Let Me Do It To You
03 After Midnight >
04 Tell Me What I Say
05 Down On The Cove
06 *Just Kissed My Baby
07 *Oye Como Va 
08 Goin' Down

Disc II 

01 #Statesboro Blues
02 *I Break Out In A Cold Sweat >
03 Nothin' To Lose
04 Tony Erice Lets Drunk Asshole Know How He Feels! GO TONY!
05 Howl
06 Done Somebody Wrong
07 Who Knows What Tomorrow May Bring
08 'Let The Good Times Roll
09 Band Introductions/Outro

* With Daniel Wytannus On Trombone    ToJo
# With Melissa Goehner On Vocals

Tyler Neal - Guitar And Vocals
Hill Roberts - Bass And Vocals 
Chad Mason - Keyboards And Vocals
Tony Erice - Percussion
Ryan Van Fleet - Drums 
Kee - Drums

tyler2021-04-21d01t01.flac:c509a2cc53760591e01f58c5e847bc44
tyler2021-04-21d01t02.flac:f89ce02c78a8a8ba3b9e26bf20ecaf1a
tyler2021-04-21d01t03.flac:e2b8dbef052a0e325bc83e2bf4234ce0
tyler2021-04-21d01t04.flac:1fad71fbf456a653a7026e691f431c60
tyler2021-04-21d01t05.flac:f8b1444ea4bb9f15d043871451336518
tyler2021-04-21d01t06.flac:3f008e4f574dc60c0a829b7b72c2593f
tyler2021-04-21d01t07.flac:c47edcf0b1c79afd575b876d1866b33c
tyler2021-04-21d01t08.flac:34783a9dcd7d6507aed31fdba0a40cd9
tyler2021-04-21d02t01.flac:5648b90704ba254509217627b0e7b7d4
tyler2021-04-21d02t02.flac:35c09d8e6a034cf2e73526fae4f58a48
tyler2021-04-21d02t03.flac:7725fe3f8aecd306170dfa636c5001b4
tyler2021-04-21d02t04.flac:c04b81e5caf93f99bbc3e7e738023d35
tyler2021-04-21d02t05.flac:a5ebb85d26c2d1bb7a84ac625b0ee2b3
tyler2021-04-21d02t06.flac:de5efe6fee1feda657ff34dc538fc78d
tyler2021-04-21d02t07.flac:65cb8d17513759ff8aa62cc5399753f1
tyler2021-04-21d02t08.flac:1f893b1885ce336172f9caed2ab111fa
tyler2021-04-21d02t09.flac:51262ef7d931904662dda096bc52a741

length     expanded size    cdr  WAVE problems  fmt   ratio  filename
     3:38.22       38506988 B   ---   --   ---xx   flac  0.5159  tyler2021-04-21d01t01.flac
     7:02.20       74487884 B   ---   --   ---xx   flac  0.5471  tyler2021-04-21d01t02.flac
     5:34.46       59025836 B   ---   --   ---xx   flac  0.5596  tyler2021-04-21d01t03.flac
     9:30.10      100571564 B   ---   --   ---xx   flac  0.5919  tyler2021-04-21d01t04.flac
     5:30.47       58322588 B   ---   --   ---xx   flac  0.6144  tyler2021-04-21d01t05.flac
    12:05.49      128005292 B   ---   --   ---xx   flac  0.5950  tyler2021-04-21d01t06.flac
    10:47.00      114130844 B   ---   --   ---xx   flac  0.5410  tyler2021-04-21d01t07.flac
     7:07.55       75452204 B   ---   --   ---xx   flac  0.5765  tyler2021-04-21d01t08.flac
     6:49.03       72154700 B   ---   --   ---xx   flac  0.5801  tyler2021-04-21d02t01.flac
    10:15.07      108502508 B   ---   --   ---xx   flac  0.5925  tyler2021-04-21d02t02.flac
     7:56.29       84034652 B   ---   --   ---xx   flac  0.6271  tyler2021-04-21d02t03.flac
     1:08.00       11995244 B   ---   --   ---xx   flac  0.3783  tyler2021-04-21d02t04.flac
     5:36.60       59411564 B   ---   --   ---xx   flac  0.4958  tyler2021-04-21d02t05.flac
     8:13.68       87125180 B   ---   --   ---xx   flac  0.5318  tyler2021-04-21d02t06.flac
     5:07.61       54298316 B   ---   --   ---xx   flac  0.5553  tyler2021-04-21d02t07.flac
     8:13.59       87104012 B   ---   --   ---xx   flac  0.6251  tyler2021-04-21d02t08.flac
     0:59.51       10527596 B   ---   --   ---xx   flac  0.4081  tyler2021-04-21d02t09.flac
   115:36.62     1223656972 B                            0.5708  (17 files)


J



More information about the bittorrent mailing list