[bittorrent] Barry Richman Blues Jam The Rusty Barrel Marietta, Georgia 4/22/2021 (Schoeps CCM4V'S FOB)

Automated Mailer noreply-bt.e at etree.org
Fri Apr 23 04:43:38 UTC 2021


Band:           Other
Torrent Name:   Barry Richman Blues Jam The Rusty Barrel Marietta, Georgia 4/22/2021 (Schoeps CCM4V'S FOB)
Uploaded by:    zmanatl
DB Link:        
Details:        http://bt.etree.org/details.php?id=612512

Contact the seeder at http://db.etree.org/zmanatl

If the link to this show does not work, it was probably removed for
being non-trade-friendly.

Description / text file:
-------------------------
Barry Richman Blues Jam
The Rusty Barrel
Marietta, Georgia
4/22/2021

Source: Schoeps CCM4V'S>Lunatec V2>Sound Devices 722 (24/44.1)
FOB/DFC/KFC/ZFC/AARP 6' From Stage, 6 1/2' High
DSP: Sound Devices 722>Sound Forge 10.0>CD Wave>flac(16)
ID3 Tagged In Foobar 2000
Recorded By: Z-Man
Seeded By: Z-Man
A Team Dirty South Recording

Disc I 

01 Greeting By Dana McCarthy
02 Magnolia
03 New Orleans
04 Can't Find My Way Home
05 Green Light Girl
06 Steppin' Out

Barry Richman - Guitar 
Dana McCarthy - Bass And Vocals
Charlie Korch - Drums
  
barry2021-04-22d01t01.flac:c9f136aafcd383233d6c85e88d19ef87
barry2021-04-22d01t02.flac:6c7a5b2b4d8364963abf6b5774e1a8bd
barry2021-04-22d01t03.flac:b5c8356cf47aacce14f046d4f1af0e50
barry2021-04-22d01t04.flac:9dc6997c83f401e72fc63a552df96375
barry2021-04-22d01t05.flac:776e7e866b885787d4757508dc78e2a7
barry2021-04-22d01t06.flac:7429c7db224fab599c84657df161117d

length     expanded size    cdr  WAVE problems  fmt   ratio  filename
     1:38.44       17390732 B   ---   --   ---xx   flac  0.3286  barry2021-04-22d01t01.flac
     7:45.23       82080140 B   ---   --   ---xx   flac  0.4845  barry2021-04-22d01t02.flac
     4:27.62       47244668 B   ---   --   ---xx   flac  0.4655  barry2021-04-22d01t03.flac
     5:01.33       53174060 B   ---   --   ---xx   flac  0.4688  barry2021-04-22d01t04.flac
     4:29.50       47569244 B   ---   --   ---xx   flac  0.5101  barry2021-04-22d01t05.flac
     3:57.36       41891516 B   ---   --   ---xx   flac  0.5336  barry2021-04-22d01t06.flac
    27:20.23      289350360 B                            0.4805  (6 files)





More information about the bittorrent mailing list