[bittorrent] Smothered And Covered Ryan Marcus' House Sandy Springs, Georgia 4/21/2021 (Schoeps CCM4V'S FOB)

Automated Mailer noreply-bt.e at etree.org
Thu Apr 22 16:15:31 UTC 2021


Band:           Other
Torrent Name:   Smothered And Covered Ryan Marcus' House Sandy Springs, Georgia 4/21/2021 (Schoeps CCM4V'S FOB)
Uploaded by:    zmanatl
DB Link:        
Details:        http://bt.etree.org/details.php?id=612509

Contact the seeder at http://db.etree.org/zmanatl

If the link to this show does not work, it was probably removed for
being non-trade-friendly.

Description / text file:
-------------------------
Smothered And Covered
Ryan Marcus' House
Sandy Springs, Georgia
4/21/2021

Source: Schoeps CCM4V'S>Lunatec V2>Sound Devices 722 (24/44.1)
FOB/DFC/KFC/ZFC/AARP 8' From Stage, 6 1/2' High
DSP: Sound Devices 722>Sound Forge 10.0>CD Wave>flac(16)
ID3 Tagged In Foobar 2000
Recorded By: Z-Man
Seeded By: Z-Man
A Team Dirty South Recording

Disc I 

01 Shooting Star
02 Super 8 
03 Twice As Hard
04 Tight Rope
05 Thank You
06 Ramble On Rose
07 Blue Sky
08 Wiser Time
09 The Sky Is Cryin'

Mark Siegel - Guitar 
Matt Cohen - Vocals
Jason Lazarus- Bass
Matt Berke - Keyboard And Guitar
Ryan Marcus - Drums
  
smothered2021-04-21d01t01.flac:b624bfde8f4feadad477f612005ac701
smothered2021-04-21d01t02.flac:883a2076641801ee23fd537fc42dc7ba
smothered2021-04-21d01t03.flac:b5b54240237f740af3b95c01ac5c16b4
smothered2021-04-21d01t04.flac:a70a107596ee94a85f0fa4f568a11c2a
smothered2021-04-21d01t05.flac:a2cebd98ddb68bae4a438dde4f1a87af
smothered2021-04-21d01t06.flac:3aa83a3a5df0a3ddba473b3910498903
smothered2021-04-21d01t07.flac:8211f497b3414d7dd207c75e798c14a4
smothered2021-04-21d01t08.flac:1f32579fc321f0b86ec629f0f66fe2f8
smothered2021-04-21d01t09.flac:57bd1419a0b72f467e50412d998a690c

length     expanded size    cdr  WAVE problems  fmt   ratio  filename
     5:34.07       58934108 B   ---   --   ---xx   flac  0.5365  smothered2021-04-21d01t01.flac
     3:31.25       37279244 B   ---   --   ---xx   flac  0.5647  smothered2021-04-21d01t02.flac
     4:18.48       45624140 B   ---   --   ---xx   flac  0.5548  smothered2021-04-21d01t03.flac
     4:20.55       45993404 B   ---   --   ---xx   flac  0.6014  smothered2021-04-21d01t04.flac
     4:21.10       46063964 B   ---   --   ---xx   flac  0.4184  smothered2021-04-21d01t05.flac
     6:16.14       66359372 B   ---   --   ---xx   flac  0.5198  smothered2021-04-21d01t06.flac
     3:36.19       38147132 B   ---   --   ---xx   flac  0.5744  smothered2021-04-21d01t07.flac
     6:31.69       69134732 B   ---   --   ---xx   flac  0.5281  smothered2021-04-21d01t08.flac
     4:18.37       45598268 B   ---   --   ---xx   flac  0.5317  smothered2021-04-21d01t09.flac
    42:48.59      453134364 B                            0.5342  (9 files)





More information about the bittorrent mailing list