[bittorrent] The Z-Man's Jam Diane And John Rabson's House Roswell, Georgia 4/19/2021 (Schoeps CCM4V'S FOB)

Automated Mailer noreply-bt.e at etree.org
Tue Apr 20 18:39:53 UTC 2021


Band:           Other
Torrent Name:   The Z-Man's Jam Diane And John Rabson's House Roswell, Georgia 4/19/2021 (Schoeps CCM4V'S FOB)
Uploaded by:    zmanatl
DB Link:        
Details:        http://bt.etree.org/details.php?id=612499

Contact the seeder at http://db.etree.org/zmanatl

If the link to this show does not work, it was probably removed for
being non-trade-friendly.

Description / text file:
-------------------------
The Z-Man's Jam
Diane And John Rabson's House
Roswell, Georgia
4/19/2021

Source: Schoeps CCM4V'S>Lunatec V2>Sound Devices 722 (24/44.1)
FOB/DFC/KFC/ZFC/AARP 8' From Stage, 6 1/2' High
DSP: Sound Devices 722>Sound Forge 10.0>CD Wave>flac(16)
ID3 Tagged In Foobar 2000
Recorded By: Z-Man
Seeded By: Z-Man
A Team Dirty South Recording

Disc I 1st Set

01 Introduction By Z-Man
02 First Tube >
03 Shakedown Street
04 *Southbound
05 Brown-Eyed Women
06 Roses Are Free
07 Ain't No Sunshine
08 #Dancin' In The Street >
09 @^Franklin's Tower
10 Blue Sky

Disc II 2nd Set

01 Over The Hills And Far Away
02 Melissa
03 *China-Cat Sunflower >
04 @I Know You Rider
05 Piece Of My Heart
06 Drum Solo >
07 @+Eyes Of The World >
08 Morning Dew
09 Ripple

* With Funky Bitch Tease
# With With 2001, Bathtub Gin, The Simpsons, And Southbound Teases
@ With Z-Man On Vocals
^ With Scarlet Begonias And The Simpsons Teases
+ With Scarlet Begonias Tease

Jack "Captain Trips" Boyanton - Guitar And Vocals
Scott "Loaf" LoFranco - Guitar And Vocals
Johnny Barrett - Bass And Vocals
Diane Rabson - Keyboard And Vocals
Melissa Goehner - Vocals
Ryan Marcus - Drums
Jacob Sherwin - Percussion
 
thezmans2021-04-19d01t01.flac:4927fb7edb4484f40e513d952768ff61
thezmans2021-04-19d01t02.flac:3d089e5b8ebcd3417f8d0c2b8b40e011
thezmans2021-04-19d01t03.flac:528083db1008a78c0f02ce61df5dfce1
thezmans2021-04-19d01t04.flac:9ff3483d738452723fd16db4e8bc7d99
thezmans2021-04-19d01t05.flac:410faa36280fae3395f174ec7aceb8e8
thezmans2021-04-19d01t06.flac:a75e1fe836cda02b80694dd1c19fac1f
thezmans2021-04-19d01t07.flac:5a76c18d3e5d5196d6ac3a116993aa00
thezmans2021-04-19d01t08.flac:b7440a32ac70dcf377e7d54099f0247d
thezmans2021-04-19d01t09.flac:a327dca18c34b7aa23724eaa9b51eef5
thezmans2021-04-19d01t10.flac:f8ab24cd8a29e9536a023363e7841da3
thezmans2021-04-19d02t01.flac:fc165e9c9ae6acdcbb71d6a90ee6756c
thezmans2021-04-19d02t02.flac:b89d1545014a6d5e4f87ae363234d368
thezmans2021-04-19d02t03.flac:d44d5f3bfb790f6ce6d52b46d2a996d6
thezmans2021-04-19d02t04.flac:6429fe516144994a2002e8c6f5d7c8fd
thezmans2021-04-19d02t05.flac:b452df19553fe990482370b9fd7eb30b
thezmans2021-04-19d02t06.flac:9d9cabfe26d6330feefe5eada9db1f56
thezmans2021-04-19d02t07.flac:57d458dd38a09211bed4684d30837cde
thezmans2021-04-19d02t08.flac:c7e9ba0dcf66f2a89d493b67c70d8077
thezmans2021-04-19d02t09.flac:1cf19f0d61f01e1411e693495cd4ed20

 length     expanded size    cdr  WAVE problems  fmt   ratio  filename
     0:49.01        8645996 B   ---   --   ---xx   flac  0.3257  thezmans2021-04-19d01t01.flac
     7:03.24       74673692 B   ---   --   ---xx   flac  0.5634  thezmans2021-04-19d01t02.flac
     9:51.12      104280668 B   ---   --   ---xx   flac  0.5334  thezmans2021-04-19d01t03.flac
     4:58.67       52724828 B   ---   --   ---xx   flac  0.5719  thezmans2021-04-19d01t04.flac
     6:04.36       64294316 B   ---   --   ---xx   flac  0.5291  thezmans2021-04-19d01t05.flac
     5:46.23       61088540 B   ---   --   ---xx   flac  0.5380  thezmans2021-04-19d01t06.flac
     7:01.29       74332652 B   ---   --   ---xx   flac  0.4686  thezmans2021-04-19d01t07.flac
    11:29.07      121556108 B   ---   --   ---xx   flac  0.5417  thezmans2021-04-19d01t08.flac
     9:17.45       98360684 B   ---   --   ---xx   flac  0.5459  thezmans2021-04-19d01t09.flac
     4:54.42       51960428 B   ---   --   ---xx   flac  0.4921  thezmans2021-04-19d01t10.flac
     6:10.17       65308028 B   ---   --   ---xx   flac  0.4787  thezmans2021-04-19d02t01.flac
     6:18.13       66709820 B   ---   --   ---xx   flac  0.4709  thezmans2021-04-19d02t02.flac
     6:10.35       65350364 B   ---   --   ---xx   flac  0.5386  thezmans2021-04-19d02t03.flac
     7:34.34       80165612 B   ---   --   ---xx   flac  0.5308  thezmans2021-04-19d02t04.flac
     4:31.09       47825612 B   ---   --   ---xx   flac  0.5477  thezmans2021-04-19d02t05.flac
     3:07.68       33146780 B   ---   --   ---xx   flac  0.5158  thezmans2021-04-19d02t06.flac
    13:36.25      144001244 B   ---   --   ---xx   flac  0.5368  thezmans2021-04-19d02t07.flac
    10:33.70      111825884 B   ---   --   ---xx   flac  0.4775  thezmans2021-04-19d02t08.flac
     5:36.13       59301020 B   ---   --   ---xx   flac  0.4398  thezmans2021-04-19d02t09.flac
   130:54.45     1385552276 B                            0.5182  (19 files)






More information about the bittorrent mailing list