[bittorrent] Cody Matthews Band Tucker Brewing Tucker, Georgia 4/17/2021 (Schoeps CCM4V'S FOB)

Automated Mailer noreply-bt.e at etree.org
Mon Apr 19 15:41:44 UTC 2021


Band:           Other
Torrent Name:   Cody Matthews Band Tucker Brewing  Tucker, Georgia 4/17/2021 (Schoeps CCM4V'S FOB)
Uploaded by:    zmanatl
DB Link:        
Details:        http://bt.etree.org/details.php?id=612490

Contact the seeder at http://db.etree.org/zmanatl

If the link to this show does not work, it was probably removed for
being non-trade-friendly.

Description / text file:
-------------------------
Cody Matthews Band
Tucker Brewing 
Tucker, Georgia
4/17/2021

Source: Schoeps CCM4V'S>Lunatec V2>Sound Devices 722 (24/44.1)
FOB/DFC/KFC/ZFC/AARP 20' From Stage, 6 1/2' High
DSP: Sound Devices 722>Sound Forge 10.0>CD Wave>flac(16)
ID3 Tagged In Foobar 2000
Recorded By: Z-Man
Seeded By: Z-Man
A Team Dirty South Recording

Disc I 

01*Can't You See 
02 Superstition
03 What Are You Listening To
04 Good Directions
05 Whiskey Glasses
06 Hurricane
07 Folsom Prison Blues
08 Soulshine
09 Something'Bout Olivia
10 Drift Away
11 Lonely Night In Georgia
12 ?
13 I Don't Want To Be
14 Wanted Dead Or Alive
15 ?
16 Family Tradition
17 Why To A Whiskey Night
18 Valerie
19 Beer Run

* I Missed Most Of This As I Was There To Help Lewis Set Up The Stage And Sound System. I Decided 
To Hang Out And Check Out The Opening Band. So I Grabbed My Gear Out Of The Car and Set Up.

Cody Matthews - Acoustic Guitar And Vocals
Rob Payton - Guitar And Vocals
T-Bone - Bass  
Mike Robbins - Drums 

cody2021-04-17d01t01.flac:8b45522ee639c71788b1e3a880f88369
cody2021-04-17d01t02.flac:2141e57000a3c1c31a5624dd9e974215
cody2021-04-17d01t03.flac:2c273a996003b1f18b5c87d33bc0d9cf
cody2021-04-17d01t04.flac:0f3cc9ef48dd4a0c254341fb9565179a
cody2021-04-17d01t05.flac:0432acc321bf7b230931e6308e5a2d42
cody2021-04-17d01t06.flac:e6d369161ef0a6fdbeb3fc11f0de4772
cody2021-04-17d01t07.flac:c483f021cb72f4fef1d42a4a7b741f8d
cody2021-04-17d01t08.flac:1770ab56a3505612b75452f07f4a35fe
cody2021-04-17d01t09.flac:58e82319f37ea64269f76e0aa6ba14e3
cody2021-04-17d01t10.flac:2e864b435be4801802b953b0d78ae568
cody2021-04-17d01t11.flac:6b01a1614a7069e86bca2b0f840422fc
cody2021-04-17d01t12.flac:f6306fa5a12ffd83996c372e78f3b31b
cody2021-04-17d01t13.flac:49e3c2d6c759c569d57212f9bbe9fa74
cody2021-04-17d01t14.flac:13c7a73c502f5c386096cf3f71fffae0
cody2021-04-17d01t15.flac:29209c127abac2953411b4f5857b8c2c
cody2021-04-17d01t16.flac:a1c572933f730a7a1c41b8331533f5d5
cody2021-04-17d01t17.flac:a5803973ba4aa386ca42e4d62f3baeb0
cody2021-04-17d01t18.flac:5ec225ced556dae28a7b9b258a07ce9d
cody2021-04-17d01t19.flac:446a4173a00e504cd123af78eec61ba9

length     expanded size    cdr  WAVE problems  fmt   ratio  filename
     1:11.57       12658508 B   ---   --   ---xx   flac  0.4551  cody2021-04-17d01t01.flac
     5:14.17       55429628 B   ---   --   ---xx   flac  0.5252  cody2021-04-17d01t02.flac
     4:34.14       48366572 B   ---   --   ---xx   flac  0.4392  cody2021-04-17d01t03.flac
     3:51.08       40767260 B   ---   --   ---xx   flac  0.4583  cody2021-04-17d01t04.flac
     3:43.51       39457196 B   ---   --   ---xx   flac  0.4764  cody2021-04-17d01t05.flac
     4:11.19       44321132 B   ---   --   ---xx   flac  0.4574  cody2021-04-17d01t06.flac
     3:49.17       40435628 B   ---   --   ---xx   flac  0.4410  cody2021-04-17d01t07.flac
     5:00.15       52955324 B   ---   --   ---xx   flac  0.4868  cody2021-04-17d01t08.flac
     3:11.65       33845324 B   ---   --   ---xx   flac  0.4698  cody2021-04-17d01t09.flac
     4:25.18       46788380 B   ---   --   ---xx   flac  0.4475  cody2021-04-17d01t10.flac
     5:14.31       55462556 B   ---   --   ---xx   flac  0.4441  cody2021-04-17d01t11.flac
     3:52.50       41042444 B   ---   --   ---xx   flac  0.4812  cody2021-04-17d01t12.flac
     4:44.63       50245820 B   ---   --   ---xx   flac  0.4948  cody2021-04-17d01t13.flac
     4:35.03       48517100 B   ---   --   ---xx   flac  0.4370  cody2021-04-17d01t14.flac
     3:40.42       38906828 B   ---   --   ---xx   flac  0.4621  cody2021-04-17d01t15.flac
     4:40.32       49467308 B   ---   --   ---xx   flac  0.4855  cody2021-04-17d01t16.flac
     4:44.30       50168204 B   ---   --   ---xx   flac  0.4563  cody2021-04-17d01t17.flac
     4:49.61       51123116 B   ---   --   ---xx   flac  0.4984  cody2021-04-17d01t18.flac
     1:44.52       18467948 B   ---   --   ---xx   flac  0.4040  cody2021-04-17d01t19.flac
    77:19.45      818426276 B                            0.4675  (19 files)






More information about the bittorrent mailing list