[bittorrent] G. Love Solo Acoustic Contrast Artisan Ales Chzamblee, Georgia 4/15/2021 (Schoeps CCM4V'S FOB)

Automated Mailer noreply-bt.e at etree.org
Fri Apr 16 05:09:07 UTC 2021


Band:           Other
Torrent Name:   G. Love Solo Acoustic Contrast Artisan Ales Chzamblee, Georgia 4/15/2021 (Schoeps CCM4V'S FOB)
Uploaded by:    zmanatl
DB Link:        
Details:        http://bt.etree.org/details.php?id=612466

Contact the seeder at http://db.etree.org/zmanatl

If the link to this show does not work, it was probably removed for
being non-trade-friendly.

Description / text file:
-------------------------
G. Love Solo Acoustic
Contrast Artisan Ales
Chzamblee, Georgia
4/15/2021

Source: Schoeps CCM4V'S>Lunatec V2>Sound Devices 722 (24/44.1)
FOB/DFC/KFC/ZFC/AARP Stage Lip, 4 1/2' High
DSP: Sound Devices 722>Sound Forge 10.0>CD Wave>flac(16)
ID3 Tagged In Foobar 2000
Recorded By: Z-Man
Seeded By: Z-Man
A Team Dirty South Recording

Disc I 1st Set

01 Introduction By Chase Of Contrast Artisan Ales/G. Love Banter
02 Drinlin' Wine
03 Early Risin'
04 Banter
05 Philly Sound
06 Rainbow
07 Meet Me In The Mornin'
08 Soul BQ
09 Statesboro Blues
10 Banter
11 *She's The Rock

Disc II 2nd Set

01 Banter
02 The Booty Call 
03 #Shootin' Hoops
04 Don't Kiss And Tell
05 This Ain't Livin'
06 Casey Jones
07 Mellow Moon
08 I Like Cold Beverages
Encore:
09 Baby's Got Sauce

* With Lewis Dutton (G. Love And Kelsy's 5 Year Old Son) On Harmonica
# Dedicated To Dominique Wilkins And Spud Webb Of The Atlanta Hawks

Garret "G. Love" Dutton - Guitar, Harmonica, Bass Pedal, And Vocals

glove2021-04-15d01t01.flac:360179bd2b01679c4e9f568fb49733ca
glove2021-04-15d01t02.flac:b4558cdbf1f576cfa99926ac308ea2c4
glove2021-04-15d01t03.flac:29d347415cb4f51eb8d00012fe0f9752
glove2021-04-15d01t04.flac:7410471f8ed7c6db1115be033bef1f50
glove2021-04-15d01t05.flac:12cbdfb2860b5ccd9da754e9b9cf92da
glove2021-04-15d01t06.flac:ea189beecb35372742a50eb036927209
glove2021-04-15d01t07.flac:063274904d3487cf91ed1e76aeb30123
glove2021-04-15d01t08.flac:b175ee827076f748c93cb7c86f2d3167
glove2021-04-15d01t09.flac:67ca6677f840eced218eab53e3f277d7
glove2021-04-15d01t10.flac:b4c4402ffaa31e6e123a70b675749259
glove2021-04-15d01t11.flac:ff55426352ce40aa0f3d85d047935f49
glove2021-04-15d02t01.flac:f3c1a6dfbeb5d6d4a3fbaa07edcccfc9
glove2021-04-15d02t02.flac:10a7e595bfa01d0a173929d611eb90e0
glove2021-04-15d02t03.flac:18fdb8127fe229ab8fad444ffc514650
glove2021-04-15d02t04.flac:ba88823c2fe97be63793400196f3e50a
glove2021-04-15d02t05.flac:84465b12bcda7c90d64b04648e725af1
glove2021-04-15d02t06.flac:69cb2a0916ceeaf4e1b3e60014c919e5
glove2021-04-15d02t07.flac:20ea92d6222f037164cd3c127cdce423
glove2021-04-15d02t08.flac:8072e161acabc14038b921bbbcb03c92
glove2021-04-15d02t09.flac:5be4a33d085865b7d4a1bdc589e23fba

 length     expanded size    cdr  WAVE problems  fmt   ratio  filename
     1:45.29       18590252 B   ---   --   ---xx   flac  0.4084  glove2021-04-15d01t01.flac
     7:16.16       76948076 B   ---   --   ---xx   flac  0.5296  glove2021-04-15d01t02.flac
     5:56.22       62850188 B   ---   --   ---xx   flac  0.4696  glove2021-04-15d01t03.flac
     3:08.29       33231452 B   ---   --   ---xx   flac  0.3320  glove2021-04-15d01t04.flac
     6:08.25       64974044 B   ---   --   ---xx   flac  0.4482  glove2021-04-15d01t05.flac
     7:05.56       75101756 B   ---   --   ---xx   flac  0.4340  glove2021-04-15d01t06.flac
    10:22.40      109814924 B   ---   --   ---xx   flac  0.4127  glove2021-04-15d01t07.flac
     4:07.50       43688444 B   ---   --   ---xx   flac  0.5850  glove2021-04-15d01t08.flac
     6:29.19       68664332 B   ---   --   ---xx   flac  0.5179  glove2021-04-15d01t09.flac
     3:05.54       32761052 B   ---   --   ---xx   flac  0.3698  glove2021-04-15d01t10.flac
     8:59.32       95154908 B   ---   --   ---xx   flac  0.4420  glove2021-04-15d01t11.flac
     1:01.49       10875692 B   ---   --   ---xx   flac  0.3626  glove2021-04-15d02t01.flac
     4:10.27       44163548 B   ---   --   ---xx   flac  0.5179  glove2021-04-15d02t02.flac
     4:45.66       50429276 B   ---   --   ---xx   flac  0.5329  glove2021-04-15d02t03.flac
     5:27.74       57856892 B   ---   --   ---xx   flac  0.4657  glove2021-04-15d02t04.flac
     6:42.39       71004572 B   ---   --   ---xx   flac  0.4782  glove2021-04-15d02t05.flac
     5:51.27       61979948 B   ---   --   ---xx   flac  0.5320  glove2021-04-15d02t06.flac
     3:24.50       36103244 B   ---   --   ---xx   flac  0.4458  glove2021-04-15d02t07.flac
     5:34.32       58992908 B   ---   --   ---xx   flac  0.4902  glove2021-04-15d02t08.flac
     8:19.32       88098908 B   ---   --   ---xx   flac  0.4563  glove2021-04-15d02t09.flac
   109:43.18     1161284416 B                            0.4684  (20 files)





More information about the bittorrent mailing list