[bittorrent] gd1984-07-15.152256.sbd.cm.miller.t.flac16

Automated Mailer noreply-bt.e at etree.org
Fri Apr 16 02:27:10 UTC 2021


Band:           Grateful Dead
Torrent Name:   gd1984-07-15.152256.sbd.cm.miller.t.flac16
Uploaded by:    norm
DB Link:        
Details:        http://bt.etree.org/details.php?id=612464

Contact the seeder at http://db.etree.org/norm

If the link to this show does not work, it was probably removed for
being non-trade-friendly.

Description / text file:
-------------------------
Grateful Dead - July 15, 1984
Greek Theatre - Berkeley, CA
University Of California

Recording Info:
SBD > Cassette Master (Sony WM-D6C/Maxell XLII-S90)

Transfer Info:
Cassette Master (Nakamichi CR-7A) > Tascam DA-3000 (DSF 1-bit/5.6MHz) >
Sound Forge 13 Pro (WAV 24-bit/96k) > Samplitude Pro X5 Suite > FLAC/24
(1 DVD FLAC)

All Transfers and Mastering by Charlie Miller
charliemiller87 at earthlink.net
March 29, 2021

Notes:
-- Tape flip in Drums covered by a PCM Soundboard
-- There is a Gloria jam in Not Fade Away
-- Thanks to Joani Walker and Paul Scotton for the tapes
-- Thanks to Joe B. Jones for confirming the pitch
-- 152163 24 > 16 @ 44.1

Set 1:
01 - Tuning
02 - Dancing In The Street >
03 - Bird Song
04 - New Minglewood Blues
05 - Cumberland Blues
06 - My Brother Esau
07 - Ramble On Rose
08 - Hell In A Bucket

Set 2:
09 - Why Don't We Do It In The Road? >
10 - China Cat Sunflower >
11 - I Know You Rider
12 - Playing In The Band >
13 - Uncle John's Band >
14 - Don't Need Love >
15 - Drums >
16 - Space >
17 - China Doll >
18 - Throwing Stones >
19 - Not Fade Away

Encore:
20 - Brokedown Palace
21 - Johnny B. Goode


SHNTOOL OUTPUT:    length     expanded size    cdr  WAVE problems  fmt   ratio  filename
    0:34.17        6037628 B   ---   --   ---xx   flac  0.4995  01 Tuning.flac
    7:29.20       79250684 B   ---   --   ---xx   flac  0.6806  02 Dancing In The Street.flac
   12:31.10      132499964 B   ---   --   ---xx   flac  0.6394  03 Bird Song.flac
    8:40.11       91753916 B   ---   --   ---xx   flac  0.6519  04 New Minglewood Blues.flac
    6:32.27       69212348 B   ---   --   ---xx   flac  0.6617  05 Cumberland Blues.flac
    4:53.00       51685244 B   ---   --   ---xx   flac  0.6648  06 My Brother Esau.flac
    7:46.09       82223612 B   ---   --   ---xx   flac  0.6371  07 Ramble On Rose.flac
    6:37.39       70122572 B   ---   --   ---xx   flac  0.6813  08 Hell In A Bucket.flac
    4:29.46       47559836 B   ---   --   ---xx   flac  0.6346  09 Why Don't We Do It In The Road.flac
    4:49.12       51007868 B   ---   --   ---xx   flac  0.6485  10 China Cat Sunflower.flac
    5:34.04       58927052 B   ---   --   ---xx   flac  0.6663  11 I Know You Rider.flac
    8:41.11       91930316 B   ---   --   ---xx   flac  0.6636  12 Playing In The Band.flac
   11:43.44      124112732 B   ---   --   ---xx   flac  0.6611  13 Uncle John's Band.flac
    7:15.63       76882220 B   ---   --   ---xx   flac  0.6414  14 Don't Need Love.flac
   12:37.28      133600700 B   ---   --   ---xx   flac  0.5052  15 Drums.flac
    5:58.47       63261788 B   ---   --   ---xx   flac  0.5274  16 Space.flac
    6:33.65       69478124 B   ---   --   ---xx   flac  0.5913  17 China Doll.flac
    9:18.42       98530028 B   ---   --   ---xx   flac  0.6380  18 Throwing Stones.flac
    9:38.51      102079196 B   ---   --   ---xx   flac  0.6252  19 Not Fade Away.flac
    7:05.03       74977100 B   ---   --   ---xx   flac  0.5831  20 Brokedown Palace.flac
    3:58.49       42098492 B   ---   --   ---xx   flac  0.6677  21 Johnny B Goode.flac
  152:47.73     1617231420 B                            0.6289  (21 files)



More information about the bittorrent mailing list