[bittorrent] gd1984-07-14.152255.sbd.cm.miller.t.flac16

Automated Mailer noreply-bt.e at etree.org
Fri Apr 16 01:37:38 UTC 2021


Band:           Grateful Dead
Torrent Name:   gd1984-07-14.152255.sbd.cm.miller.t.flac16
Uploaded by:    norm
DB Link:        
Details:        http://bt.etree.org/details.php?id=612463

Contact the seeder at http://db.etree.org/norm

If the link to this show does not work, it was probably removed for
being non-trade-friendly.

Description / text file:
-------------------------
Grateful Dead - July 14, 1984
Greek Theatre - Berkeley, CA
University Of California

Recording Info:
SBD > Cassette Master (Sony WM-D6C/Maxell XLII-S90)

Transfer Info:
Cassette Master (Nakamichi CR-7A) > Tascam DA-3000 (DSF 1-bit/5.6MHz) >
Sound Forge 13 Pro (WAV 24-bit/96k) > Adobe Audition 2020 > Samplitude Pro X5 Suite > FLAC/24
(1 DVD FLAC)

Patch Info:
(FOB) Nakamichi CM700 > Cassette Master (Sony TC-D5M) supplies:
Drums (2:20 - 2:39)

All Transfers and Mastering by Charlie Miller
charliemiller87 at earthlink.net
March 28, 2021

Notes:
-- Matt Kelly plays Harmonica on Little Red Rooster
-- Thanks to Joani Walker and Paul Scotton for the tapes
-- Thanks to Mark Severson and Scott Clugston for the patch source
-- Thanks to Joe B. Jones for the pitch correction settings
-- 152164 24 > 16 @ 44.1

Set 1:
01 - Tuning
02 - Jack Straw
03 - West L.A. Fadeaway
04 - Little Red Rooster
05 - Tennessee Jed
06 - Beat It On Down The Line >
07 - Big Railroad Blues >
08 - Looks Like Rain >
09 - Don't Ease Me In

Set 2:
10 - Tuning
11 - Help On The Way >
12 - Slipknot! >
13 - Franklin's Tower
14 - Estimated Prophet >
15 - Eyes Of The World >
16 - Drums >
17 - Space >
18 - Truckin' >
19 - Wharf Rat >
20 - Goin' Down The Road Feeling Bad >
21 - One More Saturday Night

Encore:
22 - Keep Your Day Job


SHNTOOL OUTPUT:
    length     expanded size    cdr  WAVE problems  fmt   ratio  filename
     1:47.37       18961868 B   ---   --   ---xx   flac  0.4715  01 Tuning.flac
     6:31.51       69092396 B   ---   --   ---xx   flac  0.6326  02 Jack Straw.flac
     7:59.44       84599132 B   ---   --   ---xx   flac  0.6092  03 West LA Fadeaway.flac
     8:50.74       93666092 B   ---   --   ---xx   flac  0.6170  04 Little Red Rooster.flac
     8:00.24       84728492 B   ---   --   ---xx   flac  0.6078  05 Tennessee Jed.flac
     3:20.39       35371772 B   ---   --   ---xx   flac  0.6424  06 Beat It On Down The Line.flac
     5:18.08       56114060 B   ---   --   ---xx   flac  0.6495  07 Big Railroad Blues.flac
     9:33.00      101077244 B   ---   --   ---xx   flac  0.5902  08 Looks Like Rain.flac
     2:49.37       29898668 B   ---   --   ---xx   flac  0.6415  09 Don't Ease Me In.flac
     0:51.08        9015260 B   ---   --   ---xx   flac  0.4993  10 Tuning.flac
     4:33.70       48321884 B   ---   --   ---xx   flac  0.5912  11 Help On The Way.flac
     6:00.01       63506396 B   ---   --   ---xx   flac  0.6193  12 Slipknot!.flac
    10:40.25      112954844 B   ---   --   ---xx   flac  0.6299  13 Franklin's Tower.flac
    11:30.12      121744268 B   ---   --   ---xx   flac  0.6159  14 Estimated Prophet.flac
    11:21.41      120224876 B   ---   --   ---xx   flac  0.6406  15 Eyes Of The World.flac
    10:20.46      109476236 B   ---   --   ---xx   flac  0.5143  16 Drums.flac
     8:23.12       88757468 B   ---   --   ---xx   flac  0.5123  17 Space.flac
     6:18.35       66761564 B   ---   --   ---xx   flac  0.6344  18 Truckin'.flac
     9:51.73      104424140 B   ---   --   ---xx   flac  0.6002  19 Wharf Rat.flac
     6:18.19       66723932 B   ---   --   ---xx   flac  0.6221  20 Goin' Down The Road Feeling Bad.flac
     4:33.01       48159596 B   ---   --   ---xx   flac  0.6130  21 One More Saturday Night.flac
     4:13.32       44704508 B   ---   --   ---xx   flac  0.6403  22 Keep Your Day Job.flac
   149:07.14     1578284696 B                            0.6041  (22 files)



More information about the bittorrent mailing list