[bittorrent] Voodoo Visionary Jose Rivera's House Doraville, Georgia 2/22/2021 (Schoeps CCM4V'S FOB)

Automated Mailer noreply-bt.e at etree.org
Thu Apr 15 19:54:01 UTC 2021


Band:           Other
Torrent Name:   Voodoo Visionary Jose Rivera's House Doraville, Georgia 2/22/2021 (Schoeps CCM4V'S FOB)
Uploaded by:    zmanatl
DB Link:        
Details:        http://bt.etree.org/details.php?id=612460

Contact the seeder at http://db.etree.org/zmanatl

If the link to this show does not work, it was probably removed for
being non-trade-friendly.

Description / text file:
-------------------------
Voodoo Visionary
Jose Rivera's House
Doraville, Georgia
2/22/2021

Source: Schoeps CCM4V'S>Lunatec V2>Sound Devices 722 (24/44.1)
FOB/DFC/KFC/ZFC/AARP 6' From Stage, 4' High
DSP: Sound Devices 722>Sound Forge 10.0>CD Wave>flac(16)
ID3 Tagged In Foobar 2000
Recorded By: Z-Man
Seeded By: Z-Man
A Team Dirty South Recording

Disc I 

01 Instrumental 
02 Off The Ground
03 Testify
04 ?
05 ?
06 ?
07 Let's Stay Together
08 Love And Happiness
09 Cold Shallow Moon

Mike Wilson - Guitar
Dennis Doyd - Keyboards And Vocals
Trent Gilson - Bass  
Jose Rivera - Percussion
Mac Schmitz - Drums 
Austin Cob - Vocals

voodoo2021-02-22d01t01.flac:7aa90051f6158a7dec121f16aede04a2
voodoo2021-02-22d01t02.flac:0536ea2a4078a15059ccecd21f078434
voodoo2021-02-22d01t03.flac:5c1cf814fea88e591846f587326c8b6a
voodoo2021-02-22d01t04.flac:e9a20b4e0c0b7958e32b536c37d7013f
voodoo2021-02-22d01t05.flac:d192e0e71e866f84fe00706e504c67d5
voodoo2021-02-22d01t06.flac:ab3d2f91468d117fde75aa0725499482
voodoo2021-02-22d01t07.flac:b392f06feddda7a3c59b640e837475a0
voodoo2021-02-22d01t08.flac:8744ee3588d0da0e7b59c4c7bbd8b5eb
voodoo2021-02-22d01t09.flac:2112ef838a5d9b88f37cd72e30bfb386

 length     expanded size    cdr  WAVE problems  fmt   ratio  filename
     6:32.01       69151196 B   ---   --   ---xx   flac  0.5437  voodoo2021-02-22d01t01.flac
     6:02.50       63974444 B   ---   --   ---xx   flac  0.6095  voodoo2021-02-22d01t02.flac
     9:55.40      105052124 B   ---   --   ---xx   flac  0.6112  voodoo2021-02-22d01t03.flac
     4:53.74       51859292 B   ---   --   ---xx   flac  0.6137  voodoo2021-02-22d01t04.flac
     4:26.23       46976540 B   ---   --   ---xx   flac  0.6181  voodoo2021-02-22d01t05.flac
     9:49.20      103946684 B   ---   --   ---xx   flac  0.6361  voodoo2021-02-22d01t06.flac
     4:32.01       47983196 B   ---   --   ---xx   flac  0.6325  voodoo2021-02-22d01t07.flac
     6:47.17       71834828 B   ---   --   ---xx   flac  0.5928  voodoo2021-02-22d01t08.flac
    10:52.74      115186892 B   ---   --   ---xx   flac  0.6112  voodoo2021-02-22d01t09.flac
    63:52.00      675965196 B                            0.6082  (9 files)







More information about the bittorrent mailing list