[bittorrent] skb2003-02-14 Bearsville, NY (Stage) Schoeps MK4 DAT Master 48k (UPGRADE)

Automated Mailer noreply-bt.e at etree.org
Wed Apr 14 21:43:42 UTC 2021


Band:           Steve Kimock Band
Torrent Name:   skb2003-02-14 Bearsville, NY (Stage) Schoeps MK4 DAT Master 48k (UPGRADE)
Uploaded by:    charlie miller
DB Link:        
Details:        http://bt.etree.org/details.php?id=612454

Contact the seeder at http://db.etree.org/charlie miller

If the link to this show does not work, it was probably removed for
being non-trade-friendly.

Description / text file:
-------------------------
Steve Kimock Band - February 14, 2003
Bearsville Theatre - Bearsville, NY

Recording Info:
(Stage/ORTF) Schoeps MK4 > KC5 > CMC6 > Lunatec V2 > Apogee Mini-Me > DAT Master (Sony TC-D8/48k)

Transfer Info:
DAT Master (Sony PCM-R500) > Sound Devices 744T > Samplitude Professional v11.1 > FLAC/48k
(3 Discs Audio / 1 DVD FLAC)

Recorded by Charlie Miller and Arielle Phares
charliemiller87 at earthlink.net
July 18, 2010

Notes:
-- The previous version of this source was edited for CD, this is complete

Set 1:
01 - Tuning
02 - A New Africa (Cripe)
03 - Cole's Law > (Cripe)
04 - Tangled Hangers (Cripe)
05 - Electric Wildlife (Cripe)
06 - In Reply > (Cripe)
07 - Avalon (Cripe)

Set 2:
08 - Tuning
09 - Kissin' The Boo Boo (White Strat)
10 - Moon People (White Strat)
11 - You're The One (Explorer, Ozark)
12 - Elmer's Revenge (Cripe)
13 - Five B4 Funk (Cripe
14 - Hillbillies (White Strat)

Lineup:
Steve Kimock - Guitars, Lap Steel
Rodney Holmes - Drums
Mitch Stein - Guitar
Arne Livingston - Bass


SHNTOOL OUTPUT:
    length     expanded size    cdr  WAVE problems  fmt   ratio  filename
     2:22.100      27283324 B   cxx   --   ---xx   flac  0.3513  01 Tuning.flac
    12:45.679     147010452 B   cxx   --   ---xx   flac  0.5694  02 A New Africa.flac
    11:00.286     126774876 B   cxx   --   ---xx   flac  0.5485  03 Cole's Law.flac
    19:09.057     220619036 B   cxx   --   ---xx   flac  0.5603  04 Tangled Hangers.flac
    11:17.329     130047216 B   cxx   --   ---xx   flac  0.5834  05 Electric Wildlife.flac
    10:36.651     122236980 B   cxx   --   ---xx   flac  0.5476  06 In Reply.flac
    18:02.672     207872996 B   cxx   --   ---xx   flac  0.5743  07 Avalon.flac
     1:05.319      12541264 B   cxx   --   ---xx   flac  0.3439  08 Tuning.flac
    10:52.330     125247484 B   cxx   --   ---xx   flac  0.5673  09 Kissin' The Boo Boo.flac
    14:40.072     168973892 B   cxx   --   ---xx   flac  0.5479  10 Moon People.flac
    15:45.814     181596348 B   cxx   --   ---xx   flac  0.5385  11 You're The One.flac
    22:13.210     255976288 B   cxx   --   ---xx   flac  0.5293  12 Elmer's Revenge.flac
    16:11.839     186593224 B   cxx   --   ---xx   flac  0.5462  13 Five B4 Funk.flac
    18:52.922     217520996 B   cxx   --   ---xx   flac  0.5043  14 Hillbillies.flac
   184:55.280    2130294376 B                            0.5452  (14 files)




More information about the bittorrent mailing list