[bittorrent] George Price Trio The Northside Taern Atlanta, Georgia 4/13/2021 (Schoeps CCM4V'S FOB)

Automated Mailer noreply-bt.e at etree.org
Wed Apr 14 05:21:16 UTC 2021


Band:           Other
Torrent Name:   George Price Trio The Northside Taern Atlanta, Georgia 4/13/2021 (Schoeps CCM4V'S FOB)
Uploaded by:    zmanatl
DB Link:        
Details:        http://bt.etree.org/details.php?id=612448

Contact the seeder at http://db.etree.org/zmanatl

If the link to this show does not work, it was probably removed for
being non-trade-friendly.

Description / text file:
-------------------------
George Price Trio
The Northside Taern
Atlanta, Georgia
4/13/2021

Source: Schoeps CCM4V'S>Lunatec V2>Sound Devices 722 (24/44.1)
FOB/DFC/KFC/ZFC/AARP 10' From Stage, 6 1/2' High
DSP: Sound Devices 722>Sound Forge 10.0>CD Wave>flac(16)
ID3 Tagged In Foobar 2000
Recorded By: Z-Man
Seeded By: Z-Man
A Team Dirty South Recording

Disc I 

01 Ain't No Midnight Trai
02 Instrumental
03 A Quitter Never Wins
04 All Blues
05 Ain't No Sunshine
06 Tech Support Blues
07 Pride And Joy
08 I'm Goin' Down >
09 Freeway Jam 
10 Too Much Stuff

* With Smoke On The Water Tease

Goerge Price - Guitar And Vocals
Darryl Lee - Bass And Vocals
Charlie Korch - Drums And Vocals 

george2021-04-13d01t01.flac:025a19b1713630da64689940f28d2f16
george2021-04-13d01t02.flac:9628e0cede1f57c846ed4ca2949d54d7
george2021-04-13d01t03.flac:eb37d65d695cd7c1108715f23cecb83c
george2021-04-13d01t04.flac:27e7317d8d8d632ab821ed62683b3e1f
george2021-04-13d01t05.flac:0581da7447442681e0e75d5df2a9afb3
george2021-04-13d01t06.flac:c23cb519e6e862c015fa689082f2fbeb
george2021-04-13d01t07.flac:f72a07e4606488704116e3edb62f6c5c
george2021-04-13d01t08.flac:24511470d071813705600f53e2389aec
george2021-04-13d01t09.flac:d30e3ecd43c57f341f2405c921bb4481
george2021-04-13d01t10.flac:41f572285bb2d23d9649fa95b5aa9e99

 length     expanded size    cdr  WAVE problems  fmt   ratio  filename
     6:28.20       68490284 B   ---   --   ---xx   flac  0.5201  george2021-04-13d01t01.flac
     5:08.07       54347708 B   ---   --   ---xx   flac  0.5271  george2021-04-13d01t02.flac
     7:22.53       78093500 B   ---   --   ---xx   flac  0.4004  george2021-04-13d01t03.flac
     5:08.54       54458252 B   ---   --   ---xx   flac  0.5179  george2021-04-13d01t04.flac
     4:30.02       47632748 B   ---   --   ---xx   flac  0.3920  george2021-04-13d01t05.flac
     6:22.68       67544780 B   ---   --   ---xx   flac  0.4228  george2021-04-13d01t06.flac
     5:07.22       54206588 B   ---   --   ---xx   flac  0.5135  george2021-04-13d01t07.flac
     5:50.05       61751804 B   ---   --   ---xx   flac  0.5548  george2021-04-13d01t08.flac
     7:48.71       82722236 B   ---   --   ---xx   flac  0.5576  george2021-04-13d01t09.flac
     6:03.19       64077932 B   ---   --   ---xx   flac  0.5352  george2021-04-13d01t10.flac
    59:50.21      633325832 B                            0.4950  (10 files)






More information about the bittorrent mailing list