[bittorrent] Swami Gone Bananas Swami After Dark Live The Treehouse Theatre Tucker, Georgia 4/11/2021 (Schoeps CCM4V'S FOB)

Automated Mailer noreply-bt.e at etree.org
Mon Apr 12 15:52:20 UTC 2021


Band:           Other
Torrent Name:   Swami Gone Bananas  Swami After Dark Live The Treehouse Theatre  Tucker, Georgia 4/11/2021 (Schoeps CCM4V'S FOB)
Uploaded by:    zmanatl
DB Link:        
Details:        http://bt.etree.org/details.php?id=612434

Contact the seeder at http://db.etree.org/zmanatl

If the link to this show does not work, it was probably removed for
being non-trade-friendly.

Description / text file:
-------------------------
Swami Gone Bananas 
Swami After Dark Live
The Treehouse Theatre 
Tucker, Georgia
4/11/2021

Source: Schoeps CCM4V'S>Lunatec V2>Sound Devices 722 (24/44.1)
FOB/DFC/KFC/ZFC/AARP 16' From Stage, 6 1/2' High
DSP: Sound Devices 722>Sound Forge 10.0>CD Wave>flac(16)
ID3 Tagged In Foobar 2000
Recorded By: Z-Man
Seeded By: Z-Man
A Team Dirty South Recording

Disc I 

01 Greeting/Paypal Jingle
02 She Belongs To Me
03 You Can't Always Get What You Want
04 *Your Time Is Gonna Come
05 *The Inner Light >
06 *It's All Too Much 
07 *I'm A Steam Roller Baby
08 *Norwegian Wood

Disc II 

01 People Wanna Be Free
02 Shopping For Clothes
03 I Went To Winder To Find Her, And Tucker To Pray
04 I Am Yours
05 #Midnight Rider
06 I Shall Be Released
07 Friend Of The Devil
08 New Speedway Boogie

* With Swami On Mandolin
# With Elise On Vocals

Michael "Swami" Schulman - Guitar, Mandolin, And Vocals
JR Hawkins - Percussion And Vocals
Dave"Deuce And A Quarter" Roth - Bass, Melotron, And Vocals 
Richard Hurt - Guitar, Harmonica, And Vocals
Jerry Sorn - Electric Guitar, Acoustic Guitar, Mandolin, Bass, Keyboard, And Vocals
Bobby Andre - Drums 

swami2021-04-11d01t01.flac:9365bbc264dd9e76c4bc5a7d7a8599ef
swami2021-04-11d01t02.flac:03948d755b49d9d96551341b62a06607
swami2021-04-11d01t03.flac:9d44cd982cc21042d603f476656754c8
swami2021-04-11d01t04.flac:8fe49a3fccc96485d923bd9bc0f73a95
swami2021-04-11d01t05.flac:8c9bcc0ee9f5f0e3183a5d33bca7b26c
swami2021-04-11d01t06.flac:e4ed31984cabef4b0afb137e79662b37
swami2021-04-11d01t07.flac:c6d899a1af24c1ae671f904614058135
swami2021-04-11d01t08.flac:62da594c04a30698e73938ea7e220cd9
swami2021-04-11d02t01.flac:0c072035967585ef11c1ac3f983ca88a
swami2021-04-11d02t02.flac:2622c399d66cb838a683f9c203ad28e7
swami2021-04-11d02t03.flac:3cadb1e1fba00e953853dffd20d573e4
swami2021-04-11d02t04.flac:b7b3c803158160e1868721688fc3bf10
swami2021-04-11d02t05.flac:c4ce4a1740138750247d6eadeeb6a849
swami2021-04-11d02t06.flac:bf989c5b7bdec9cea12920b38a939a7c
swami2021-04-11d02t07.flac:61877252767761a7b7ddb6e7cb9dd4cd
swami2021-04-11d02t08.flac:ba5e3c3fc2630a9be9d16147fb68cfde

 length     expanded size    cdr  WAVE problems  fmt   ratio  filename
     3:11.46       33800636 B   ---   --   ---xx   flac  0.2831  swami2021-04-11d01t01.flac
     7:20.25       77674844 B   ---   --   ---xx   flac  0.3654  swami2021-04-11d01t02.flac
     9:18.11       98457116 B   ---   --   ---xx   flac  0.3966  swami2021-04-11d01t03.flac
     4:57.47       52501388 B   ---   --   ---xx   flac  0.4992  swami2021-04-11d01t04.flac
     3:58.14       42016172 B   ---   --   ---xx   flac  0.4248  swami2021-04-11d01t05.flac
     5:24.24       57210092 B   ---   --   ---xx   flac  0.4022  swami2021-04-11d01t06.flac
     5:51.06       61930556 B   ---   --   ---xx   flac  0.3827  swami2021-04-11d01t07.flac
     3:42.74       39334892 B   ---   --   ---xx   flac  0.4278  swami2021-04-11d01t08.flac
     6:07.31       64811756 B   ---   --   ---xx   flac  0.4101  swami2021-04-11d02t01.flac
     7:01.36       74349116 B   ---   --   ---xx   flac  0.3211  swami2021-04-11d02t02.flac
     4:04.58       43178060 B   ---   --   ---xx   flac  0.4085  swami2021-04-11d02t03.flac
     3:48.11       40245116 B   ---   --   ---xx   flac  0.3992  swami2021-04-11d02t04.flac
     5:13.40       55307324 B   ---   --   ---xx   flac  0.4458  swami2021-04-11d02t05.flac
     6:59.22       73963388 B   ---   --   ---xx   flac  0.3723  swami2021-04-11d02t06.flac
     6:23.10       67584764 B   ---   --   ---xx   flac  0.4511  swami2021-04-11d02t07.flac
     8:59.64       95230172 B   ---   --   ---xx   flac  0.4362  swami2021-04-11d02t08.flac
    92:21.69      977595392 B                            0.4020  (16 files)






More information about the bittorrent mailing list