[bittorrent] Frankly Scarlet Madlife Stage And Studios Woodstock, Georgia 4/8/2021 (Schoeps CCM4V'S)

Automated Mailer noreply-bt.e at etree.org
Fri Apr 9 16:29:15 UTC 2021


Band:           Other
Torrent Name:   Frankly Scarlet Madlife Stage And Studios Woodstock, Georgia 4/8/2021 (Schoeps CCM4V'S) 
Uploaded by:    zmanatl
DB Link:        
Details:        http://bt.etree.org/details.php?id=612418

Contact the seeder at http://db.etree.org/zmanatl

If the link to this show does not work, it was probably removed for
being non-trade-friendly.

Description / text file:
-------------------------
Frankly Scarlet
Madlife Stage And Studios
Woodstock, Georgia
4/8/2021

Source: Schoeps CCM4V'S>Lunatec V2>Sound Devices 722 (24/44.1)
BOB/DFC/KFC/ZFC/AARP Clamped To The Balcony, 6 1/2' High
DSP: Sound Devices 722>Sound Forge 10.0>CD Wave>flac(16)
ID3 Tagged In Foobar 2000
Recorded By: Z-Man
Seeded By: Z-Man
A Team Dirty South Recording

Disc I 1st Set

01 Jam >
02 Sittin' On Top Of The World
03 Big River 
04 Dire Wolf 
05 Cassidy
06 *Dancin' In The Street >
07 The Wheel >
08 #Golden Road To Unlimited Devotion >
09 Viola Lee Blues

Disc II 2nd Set

01 Jam >
02 Greatest Story Ever Told 
03 Bird Song >
04 Truckin' >
05 Terrapin Station >
06 Playin' In The Band
07 Let It Grow >
08 Cumberland Blues
Encore:
09 Brokedown

* First Time Played
# With Black Magic Woman Jam

Kurt Tompkins - Drums And Vocals
Cassidy Wall - Guitar And Vocals
Jeremy "Jerbo" Foti - Bass
Chris "Critter" Ricker - Guitar And Vocals 
Damian Kapcala - Keyboards
Jose Rivera - Percussion

frankly2021-04-08d01t01.flac:0217c241a1da2f5460cef4e68be3d4a0
frankly2021-04-08d01t02.flac:9f75a5329aced52318a0a9500a973919
frankly2021-04-08d01t03.flac:16d11a04288b1bda3924642bdd3a11b6
frankly2021-04-08d01t04.flac:6c24024fcb6259e9d8da282a2f38d7c9
frankly2021-04-08d01t05.flac:488580e4da7c91231ec8888ce6be4e44
frankly2021-04-08d01t06.flac:6a8473ae191aec885fd131d33b2431d0
frankly2021-04-08d01t07.flac:b69c42e14a8b0192e61013ef18dcaff3
frankly2021-04-08d01t08.flac:d81ce65aa7d6f092572d6d4bb2af33c2
frankly2021-04-08d01t09.flac:42fb978870a0e23e59e7278f5a5df5e4
frankly2021-04-08d02t01.flac:846f264ffcd7ea6f7dd41b1f147d5685
frankly2021-04-08d02t02.flac:03e6724debbd4340403bc2ca637c1df6
frankly2021-04-08d02t03.flac:8175cdc69825919d35776b5a351ed054
frankly2021-04-08d02t04.flac:a63f223addce0bb9f6851ae099f637cf
frankly2021-04-08d02t05.flac:0dcda03a7767ed13ce9efdcac83d8b6f
frankly2021-04-08d02t06.flac:aa7c785d0d9366340314cb5d14d9cd10
frankly2021-04-08d02t07.flac:b2f931fa8c2a32fedce885b743ffdb4b
frankly2021-04-08d02t08.flac:c4665c1a7cabb1a12a759032f21d373a
frankly2021-04-08d02t09.flac:ace2f9de0fef2030c04fa36f87331c96

  length     expanded size    cdr  WAVE problems  fmt   ratio  filename
     6:07.36       64823516 B   ---   --   ---xx   flac  0.4753  frankly2021-04-08d01t01.flac
     4:42.40       49838924 B   ---   --   ---xx   flac  0.5402  frankly2021-04-08d01t02.flac
     5:44.09       60702812 B   ---   --   ---xx   flac  0.5356  frankly2021-04-08d01t03.flac
     5:34.47       59028188 B   ---   --   ---xx   flac  0.5244  frankly2021-04-08d01t04.flac
     7:54.39       83705372 B   ---   --   ---xx   flac  0.5512  frankly2021-04-08d01t05.flac
    15:14.42      161328428 B   ---   --   ---xx   flac  0.5544  frankly2021-04-08d01t06.flac
     5:21.45       56730284 B   ---   --   ---xx   flac  0.5254  frankly2021-04-08d01t07.flac
     8:49.68       93475580 B   ---   --   ---xx   flac  0.5738  frankly2021-04-08d01t08.flac
     9:58.15      105522524 B   ---   --   ---xx   flac  0.5453  frankly2021-04-08d01t09.flac
     2:18.55       24472604 B   ---   --   ---xx   flac  0.4277  frankly2021-04-08d02t01.flac
     6:52.13       72707420 B   ---   --   ---xx   flac  0.5365  frankly2021-04-08d02t02.flac
     9:55.32      105033308 B   ---   --   ---xx   flac  0.4970  frankly2021-04-08d02t03.flac
     9:36.65      101759324 B   ---   --   ---xx   flac  0.5558  frankly2021-04-08d02t04.flac
    12:35.72      133351388 B   ---   --   ---xx   flac  0.5179  frankly2021-04-08d02t05.flac
    12:03.00      127537244 B   ---   --   ---xx   flac  0.5341  frankly2021-04-08d02t06.flac
    11:45.15      124397324 B   ---   --   ---xx   flac  0.5617  frankly2021-04-08d02t07.flac
    10:36.18      112232780 B   ---   --   ---xx   flac  0.5448  frankly2021-04-08d02t08.flac
     7:15.55       76863404 B   ---   --   ---xx   flac  0.4417  frankly2021-04-08d02t09.flac
   152:26.66     1613510424 B                            0.5319  (18 files)






More information about the bittorrent mailing list