[bittorrent] Tyler Neal Band The Northside Tavern Atlanta, Georgia 4/7/2021 (Schoeps CCM4V'S FOB)

Automated Mailer noreply-bt.e at etree.org
Thu Apr 8 16:49:17 UTC 2021


Band:           Other
Torrent Name:   Tyler Neal Band The Northside Tavern Atlanta, Georgia 4/7/2021 (Schoeps CCM4V'S FOB)
Uploaded by:    zmanatl
DB Link:        
Details:        http://bt.etree.org/details.php?id=612413

Contact the seeder at http://db.etree.org/zmanatl

If the link to this show does not work, it was probably removed for
being non-trade-friendly.

Description / text file:
-------------------------
Tyler Neal Band
The Northside Tavern
Atlanta, Georgia
4/7/2021

Source: Schoeps CCM4V'S>Lunatec V2>Sound Devices 722 (24/44.1)
FOB/DFC/KFC/ZFC/AARP 10' From Stage, 6 1/2' High
DSP: Sound Devices 722>Sound Forge 10.0>CD Wave>flac(16)
ID3 Tagged In Foobar 2000
Recorded By: Z-Man
Seeded By: Z-Man
A Team Dirty South Recording

Disc I 

01 Fire On The Bayou >
02 Oye Como Va 
03 Down On The Cove 
04 Ride Me High
05 Honky Cat >
06 Yes We Can Can

Disc II 

01 Ain't Nothin' You Can Do
02 *Statesboro Blues
03 #Down South In New Orleans
04 #Brother John >
05 #Mystery Woman >
06 #Light My Fire >
07 #Mystery Woman
08 Hot 'Lanta
09 Sweet Little Angel
10 #Tip The Band/Band Introductions >
11 #Sneakin' Sally Through The Alley

* With Melissa Goehner On Vocals
# With Stagger Lee On Saxohone

Tyler Neal - Guitar, Flute, And Vocals
Chad Mason - Keyboards And Vocals
Hill Roberts - Bass And Vocals 
Adam Goodhue - Drums
Tony Erice - Percussion

tyler2021-04-07d01t01.flac:0cd83e5b86ab216ab82f29e6ccb28105
tyler2021-04-07d01t02.flac:9fc0875c75ab70fe64262f241fe26369
tyler2021-04-07d01t03.flac:ea62d19c1c69a48d5ecfb424231370c9
tyler2021-04-07d01t04.flac:3232bf375b51159c1735ab5ced80bc5c
tyler2021-04-07d01t05.flac:81db4057e55fe8fdbe4efb5ebf649fb8
tyler2021-04-07d01t06.flac:c911a991c36062c2d5e27d0a5190a506
tyler2021-04-07d02t01.flac:66730103b24cc4ed1434980ba4719534
tyler2021-04-07d02t02.flac:7073a79e10347441ff24a9e5399b4c45
tyler2021-04-07d02t03.flac:7800ad8c34578e7bd38d55b030450f4d
tyler2021-04-07d02t04.flac:86b2c26d3131dc79cdd919615fb68e79
tyler2021-04-07d02t05.flac:52564be2f2a1af287d0cd2baf65642e9
tyler2021-04-07d02t06.flac:4efe99b12105b966de403f80531a189d
tyler2021-04-07d02t07.flac:e5ab31aa2e76beb3441e97a6d022f5a3
tyler2021-04-07d02t08.flac:5e2ae247ae8e00d78f9b22ddb294174a
tyler2021-04-07d02t09.flac:8a73b5da8a47eaeecc5c76fb70b0683d
tyler2021-04-07d02t10.flac:1b0d4952d56ba06518078a772bbf06ee
tyler2021-04-07d02t11.flac:3d232a8f839d2b0aa0dd0e60590bb7b5

length     expanded size    cdr  WAVE problems  fmt   ratio  filename
     9:39.38      102225020 B   ---   --   ---xx   flac  0.4821  tyler2021-04-07d01t01.flac
     8:14.51       87261596 B   ---   --   ---xx   flac  0.4861  tyler2021-04-07d01t02.flac
     4:52.66       51664076 B   ---   --   ---xx   flac  0.5586  tyler2021-04-07d01t03.flac
    10:28.65      110932124 B   ---   --   ---xx   flac  0.5232  tyler2021-04-07d01t04.flac
     7:35.58       80398460 B   ---   --   ---xx   flac  0.5116  tyler2021-04-07d01t05.flac
     8:18.43       87948380 B   ---   --   ---xx   flac  0.5398  tyler2021-04-07d01t06.flac
    10:17.03      108845900 B   ---   --   ---xx   flac  0.4440  tyler2021-04-07d02t01.flac
     5:46.03       61041500 B   ---   --   ---xx   flac  0.5510  tyler2021-04-07d02t02.flac
     7:00.61       74231516 B   ---   --   ---xx   flac  0.5134  tyler2021-04-07d02t03.flac
     6:55.72       73375388 B   ---   --   ---xx   flac  0.6009  tyler2021-04-07d02t04.flac
     4:43.39       50012972 B   ---   --   ---xx   flac  0.5410  tyler2021-04-07d02t05.flac
     3:05.63       32782220 B   ---   --   ---xx   flac  0.5211  tyler2021-04-07d02t06.flac
     1:03.21       11162636 B   ---   --   ---xx   flac  0.5414  tyler2021-04-07d02t07.flac
     5:52.50       62210444 B   ---   --   ---xx   flac  0.5502  tyler2021-04-07d02t08.flac
     5:32.06       58578956 B   ---   --   ---xx   flac  0.5004  tyler2021-04-07d02t09.flac
     4:37.71       49029836 B   ---   --   ---xx   flac  0.5589  tyler2021-04-07d02t10.flac
     4:11.43       44377580 B   ---   --   ---xx   flac  0.5044  tyler2021-04-07d02t11.flac
   108:17.03     1146078604 B                            0.5190  (17 files)









More information about the bittorrent mailing list