[bittorrent] Voodoo Visionary Jose Rivera's House Doraville, Georgia 4/5/2021 (Schoeps CCM4V'S FOB)

Automated Mailer noreply-bt.e at etree.org
Thu Apr 8 06:01:00 UTC 2021


Band:           Other
Torrent Name:   Voodoo Visionary Jose Rivera's House Doraville, Georgia 4/5/2021 (Schoeps CCM4V'S FOB)
Uploaded by:    zmanatl
DB Link:        
Details:        http://bt.etree.org/details.php?id=612410

Contact the seeder at http://db.etree.org/zmanatl

If the link to this show does not work, it was probably removed for
being non-trade-friendly.

Description / text file:
-------------------------
Voodoo Visionary
Jose Rivera's House
Doraville, Georgia
4/5/2021

Source: Schoeps CCM4V'S>Lunatec V2>Sound Devices 722 (24/44.1)
FOB/DFC/KFC/ZFC/AARP 6' From Stage, 5 1/2' High
DSP: Sound Devices 722>Sound Forge 10.0>CD Wave>flac(16)
ID3 Tagged In Foobar 2000
Recorded By: Z-Man
Seeded By: Z-Man
A Team Dirty South Recording

Disc I 

01 ?
02 Time
03 Young Lust >
04 Standin' On Shaky Ground
05 Come And Get Your Love
06 Bug Part I
07 Take The Wheel >
08 Feelin' Alright >
09 Take The Wheel >
10 Bug 
11 Cold Shallow Moon
12 I've Got A Feelin'

Mike Wilson - Guitar
Scott MacDonald - Vocals
Trent Gilson - Bass 
Mac Schmitz - Drums 
Jose Rivera - Percussion
Austin Cobb - Vocals
? - Guitar

voodoo2021-04-05d01t01.flac:b5b247eaeb96f43d0d064770607605ca
voodoo2021-04-05d01t02.flac:97e08b7ba658511072ac76a58ff9d915
voodoo2021-04-05d01t03.flac:c863958e3cdd0109ddf8b6bd7a85dc9f
voodoo2021-04-05d01t04.flac:c5a2a8791649ffaa2585aa0092936efd
voodoo2021-04-05d01t05.flac:dd2184f118860873823b08da88f85248
voodoo2021-04-05d01t06.flac:e0ef368c6ef71e51d53de5be89356d3b
voodoo2021-04-05d01t07.flac:b4835a79274b9ab86aa35a54bd8584e7
voodoo2021-04-05d01t08.flac:b3cdb19021bd8f754c9773cd827bc47b
voodoo2021-04-05d01t09.flac:fdd15928803fa060ed30a19856fc9a80
voodoo2021-04-05d01t10.flac:ee2c4fe9c9139e83f559df97dd8e485c
voodoo2021-04-05d01t11.flac:ab4483fc8e39792e7d79b2c338f81e26
voodoo2021-04-05d01t12.flac:57bac03c23cbeed01f35d7630b4be848

 length     expanded size    cdr  WAVE problems  fmt   ratio  filename
     7:01.43       74365580 B   ---   --   ---xx   flac  0.5650  voodoo2021-04-05d01t01.flac
     6:34.48       69614540 B   ---   --   ---xx   flac  0.4789  voodoo2021-04-05d01t02.flac
     3:39.24       38688092 B   ---   --   ---xx   flac  0.5807  voodoo2021-04-05d01t03.flac
     3:59.67       42317228 B   ---   --   ---xx   flac  0.5936  voodoo2021-04-05d01t04.flac
     2:15.46       23922236 B   ---   --   ---xx   flac  0.5632  voodoo2021-04-05d01t05.flac
     2:53.21       30566636 B   ---   --   ---xx   flac  0.5397  voodoo2021-04-05d01t06.flac
     3:13.37       34132268 B   ---   --   ---xx   flac  0.4755  voodoo2021-04-05d01t07.flac
     0:40.03        7063100 B   ---   --   ---xx   flac  0.5093  voodoo2021-04-05d01t08.flac
     1:56.23       20516540 B   ---   --   ---xx   flac  0.4108  voodoo2021-04-05d01t09.flac
     1:58.38       20904620 B   ---   --   ---xx   flac  0.4581  voodoo2021-04-05d01t10.flac
    10:13.34      108213212 B   ---   --   ---xx   flac  0.6130  voodoo2021-04-05d01t11.flac
     9:33.46      101185436 B   ---   --   ---xx   flac  0.5538  voodoo2021-04-05d01t12.flac
    53:59.55      571489488 B                            0.5479  (12 files)







More information about the bittorrent mailing list