[bittorrent] Danny Miller Band The Northside Tavern Atlanta, Georgia 4/6/2021 (Schoeps CCM4V'S FOB)

Automated Mailer noreply-bt.e at etree.org
Wed Apr 7 19:06:22 UTC 2021


Band:           Other
Torrent Name:   Danny Miller Band  The Northside Tavern Atlanta, Georgia 4/6/2021 (Schoeps CCM4V'S FOB)
Uploaded by:    zmanatl
DB Link:        
Details:        http://bt.etree.org/details.php?id=612407

Contact the seeder at http://db.etree.org/zmanatl

If the link to this show does not work, it was probably removed for
being non-trade-friendly.

Description / text file:
-------------------------
Danny Miller Band 
The Northside Tavern
Atlanta, Georgia
4/6/2021

Source: Schoeps CCM4V'S>Lunatec V2>Sound Devices 722 (24/44.1)
FOB/DFC/KFC/ZFC/AARP 10' From Stage, 6 1/2' High
DSP: Sound Devices 722>Sound Forge 10.0>CD Wave>flac(16)
ID3 Tagged In Foobar 2000
Recorded By: Z-Man
Seeded By: Z-Man
A Team Dirty South Recording

Disc I 

01 Greeting
02 Just My Imagination (Instrumental)
03 Instrumental
04 Cross-Cut Saw 
05 With The Blues
06 Tore Down
07 Tupelo Honey
08 Born Under A Bad Sign
09 Spooky
10 Hideaway

Danny Miller - Guitar And Vocals
Darell Lee - Bass And Vocals
Charlie Korch - Drums And Vocals

danny2021-04-07d01t01.flac:0e7317ad21388e9ed7acb7e674ca74dc
danny2021-04-07d01t02.flac:99074f564dc12f069e2888fab9f6ba06
danny2021-04-07d01t03.flac:98102440d433e7a6e9d2614eaa45ae53
danny2021-04-07d01t04.flac:72d7f57c6484c9de7fad2eb37a911e69
danny2021-04-07d01t05.flac:1232a46c071d61874fd56d8270f1423f
danny2021-04-07d01t06.flac:0dbc893858ba6586891b5d8a40bbb01c
danny2021-04-07d01t07.flac:eb2709ef394bf89987cda0e52505305c
danny2021-04-07d01t08.flac:f300d1d3632108b790fe3298a45f7ebb
danny2021-04-07d01t09.flac:ff3c74682952fb1f43363f8b9287da06
danny2021-04-07d01t10.flac:4e2bd51d2352f7d3c39f416c862aa49d

 length     expanded size    cdr  WAVE problems  fmt   ratio  filename
     1:09.07       12188108 B   ---   --   ---xx   flac  0.2264  danny2021-04-07d01t01.flac
     5:14.08       55408460 B   ---   --   ---xx   flac  0.4040  danny2021-04-07d01t02.flac
     5:39.14       59832572 B   ---   --   ---xx   flac  0.3898  danny2021-04-07d01t03.flac
     7:11.57       76162508 B   ---   --   ---xx   flac  0.4754  danny2021-04-07d01t04.flac
     8:00.56       84803756 B   ---   --   ---xx   flac  0.4764  danny2021-04-07d01t05.flac
     4:45.48       50386940 B   ---   --   ---xx   flac  0.4937  danny2021-04-07d01t06.flac
     6:08.08       64934060 B   ---   --   ---xx   flac  0.3640  danny2021-04-07d01t07.flac
     6:40.01       70562396 B   ---   --   ---xx   flac  0.4337  danny2021-04-07d01t08.flac
     6:33.05       69337004 B   ---   --   ---xx   flac  0.4837  danny2021-04-07d01t09.flac
     4:48.08       50822060 B   ---   --   ---xx   flac  0.5140  danny2021-04-07d01t10.flac
    56:09.62      594437864 B                            0.4439  (10 files)








More information about the bittorrent mailing list