[bittorrent] The Bluegrass kings Steady Hand Beer Co. Atlanta, Georgia 3/7/2021 (Schoeps CCM4V'S FOB)

Automated Mailer noreply-bt.e at etree.org
Wed Apr 7 00:15:08 UTC 2021


Band:           Other
Torrent Name:   The Bluegrass kings Steady Hand Beer Co. Atlanta, Georgia 3/7/2021 (Schoeps CCM4V'S FOB)
Uploaded by:    zmanatl
DB Link:        
Details:        http://bt.etree.org/details.php?id=612399

Contact the seeder at http://db.etree.org/zmanatl

If the link to this show does not work, it was probably removed for
being non-trade-friendly.

Description / text file:
-------------------------
The Bluegrass kings
Steady Hand Beer Co.
Atlanta, Georgia
3/7/2021

Source: Schoeps CCM4V'S>Lunatec V2>Sound Devices 722 (24/44.1)
FOB/DFC/KFC/ZFC/AARP 6' From Stage, 5' High
DSP: Sound Devices 722>Sound Forge 10.0>CD Wave>flac(16)
ID3 Tagged In Foobar 2000
Recorded By: Z-Man
Seeded By: Z-Man
A Team Dirty South Recording

Disc I 1st Set

01 Sittin' On Top Of The World
02 Lovin' The Mountains
03 White Freight Liner Blues
04 Jam >
05 Blue Night
06 Gold Rush
07 Hold What You Got
08 Salt Creek
09 Why You Been Gone So Long
10 The Old Home Place
11 Red - Haired Boy 
12 When The Bluebirds Sing For Me
13 How Far I'd Fall
14 Proud Mary

Disc II 2nd Set

01 You Can't Take It With You When You Go
02 Banter
03 Foggy Mountain Breakdown
04 Ramblin' Boy
05 *Polly Wolly Doodle 
06 Thanks Alot
07 Banter On Take BanJo
08 A Short Hello And A Quick Goodbye
09 Blue Ridge Cabin Home >
10 Do You Right Tonight
11 Drivin' My Life Away
12 Foggy Mountain Special 
13 Think Of What You've Done

Disc III 2nd Set Con't

01 Shennandoah Breakdown
02 #Forty Years Of Trouble
03 Travelin' The Highway Home
04 Blackberry Blossom 
05 Blue And Lonesome 
06 Sweet Minomee
07 Ridin' On That Midnight Train
08 Steam-Powered Aireoplane 
09 Mama Don't Allow No BanJo Playin' Around Here
10 The Old Old House
11 Restless
12 I'll Fly Away

* With Jim Doing His Duck Voice For US
# With If I Had A Brain Tease Before The Song

Generator Was Running All Afternoon For The Food Truck, So You Have A Constant Hum. Most Noticable
Between Songs

Chad Braswell - Guitar And Vocals
Jim "Duck" Adkins - BanJo And Vocals 

theblue2021-03-07d01t01.flac:de093ae95146af74f17e5e7946aabb64
theblue2021-03-07d01t02.flac:919ba64d045b7441db11440600d179ac
theblue2021-03-07d01t03.flac:fb9efa4135a8592a6425c81573d12168
theblue2021-03-07d01t04.flac:04f2e06924ab7abc73db74eb401e25f3
theblue2021-03-07d01t05.flac:045c05cd6a1e8e92bcd26cfb509e011b
theblue2021-03-07d01t06.flac:de921ad901527a6e16be6c58a5f91c7e
theblue2021-03-07d01t07.flac:fd5e1c1d9d6098a00859180011c3bd6d
theblue2021-03-07d01t08.flac:c60855e154e91020a891425655cde0b6
theblue2021-03-07d01t09.flac:f1a0044af4226a64415d95ac84a7e253
theblue2021-03-07d01t10.flac:9602cc9603e3dd7eb8077e5fa316da4a
theblue2021-03-07d01t11.flac:ee94e156ecb27415cf9979682e4ca0dc
theblue2021-03-07d01t12.flac:97831c7602e4976b56842535582880ee
theblue2021-03-07d01t13.flac:ffb317b16d3630a0d5d1e18b03d44a70
theblue2021-03-07d01t14.flac:20dbf5d219b68896e413031bd3b4589e
theblue2021-03-07d02t01.flac:84cccaf52fe5a442b488a5728b82780c
theblue2021-03-07d02t02.flac:4f07039bf1322c48d517ab893c4841dc
theblue2021-03-07d02t03.flac:2108acfff364a681ac6a7971051e521b
theblue2021-03-07d02t04.flac:30d741da5b0f29cb62c80d3b4bcc46ea
theblue2021-03-07d02t05.flac:8120b234bc609c8380437bccc7ff7cd8
theblue2021-03-07d02t06.flac:ffc87805649f7ff4c8820fa222f87200
theblue2021-03-07d02t07.flac:7364fed8d5f43e55f4167717de50db13
theblue2021-03-07d02t08.flac:2430ee8d41f5021797ca82da36eb244b
theblue2021-03-07d02t09.flac:88d079a4bf3004ec666809ead0061be9
theblue2021-03-07d02t10.flac:23d1418d859ddd3b17779cebda1dc6cc
theblue2021-03-07d02t11.flac:2d09a2f8a06c2daf94b455df4a90c2cd
theblue2021-03-07d02t12.flac:cb84c6c7142612b560bda1b0af9b0a49
theblue2021-03-07d02t13.flac:c2f2594b8479ebf08004a478f263fe0b
theblue2021-03-07d03t01.flac:ed5a023e5995b78daf9ab180829d0d5a
theblue2021-03-07d03t02.flac:fcc361bfdb036746e9458ed79202b2c6
theblue2021-03-07d03t03.flac:46a272e13834aeda7a51a09597e5216c
theblue2021-03-07d03t04.flac:0e2c3121cd86f31c3967a26dae071ff3
theblue2021-03-07d03t05.flac:be107ccfd7bfd3592fa6856e9aa13cf9
theblue2021-03-07d03t06.flac:d0c90e7bab008dfcbc85a74216f8e3d5
theblue2021-03-07d03t07.flac:99058829cecd4317a747cf60b6229ad7
theblue2021-03-07d03t08.flac:11e97d0199fe944c5c8626d564adb1ad
theblue2021-03-07d03t09.flac:24c842533421a8863f6c11a782435fb0
theblue2021-03-07d03t10.flac:74e65500eb6a1f298d9cbcd9ba4b58d1
theblue2021-03-07d03t11.flac:bd38a63d55b59d5eb4600708cd9fb71a
theblue2021-03-07d03t12.flac:3470fad91865f2210a9d2e047a6d923e

length     expanded size    cdr  WAVE problems  fmt   ratio  filename
     5:07.02       54159548 B   ---   --   ---xx   flac  0.3992  theblue2021-03-07d01t01.flac
     4:46.68       50610380 B   ---   --   ---xx   flac  0.4137  theblue2021-03-07d01t02.flac
     4:56.54       52341452 B   ---   --   ---xx   flac  0.4239  theblue2021-03-07d01t03.flac
     1:35.40       16852124 B   ---   --   ---xx   flac  0.4122  theblue2021-03-07d01t04.flac
     3:15.39       34489772 B   ---   --   ---xx   flac  0.4163  theblue2021-03-07d01t05.flac
     3:00.04       31761452 B   ---   --   ---xx   flac  0.4221  theblue2021-03-07d01t06.flac
     5:31.10       58411964 B   ---   --   ---xx   flac  0.3731  theblue2021-03-07d01t07.flac
     3:54.63       41425820 B   ---   --   ---xx   flac  0.3911  theblue2021-03-07d01t08.flac
     5:01.71       53263436 B   ---   --   ---xx   flac  0.3837  theblue2021-03-07d01t09.flac
     4:09.36       44008316 B   ---   --   ---xx   flac  0.4093  theblue2021-03-07d01t10.flac
     4:14.35       44887964 B   ---   --   ---xx   flac  0.3983  theblue2021-03-07d01t11.flac
     5:05.74       53976092 B   ---   --   ---xx   flac  0.3847  theblue2021-03-07d01t12.flac
     6:07.30       64809404 B   ---   --   ---xx   flac  0.3785  theblue2021-03-07d01t13.flac
     3:56.61       41773916 B   ---   --   ---xx   flac  0.4133  theblue2021-03-07d01t14.flac
     4:09.13       43954220 B   ---   --   ---xx   flac  0.4078  theblue2021-03-07d02t01.flac
     2:48.49       29750492 B   ---   --   ---xx   flac  0.2894  theblue2021-03-07d02t02.flac
     3:51.34       40828412 B   ---   --   ---xx   flac  0.4089  theblue2021-03-07d02t03.flac
     5:19.62       56417468 B   ---   --   ---xx   flac  0.4183  theblue2021-03-07d02t04.flac
     2:43.58       28889660 B   ---   --   ---xx   flac  0.3792  theblue2021-03-07d02t05.flac
     3:39.37       38718668 B   ---   --   ---xx   flac  0.4037  theblue2021-03-07d02t06.flac
     1:51.23       19634540 B   ---   --   ---xx   flac  0.3210  theblue2021-03-07d02t07.flac
     4:03.38       42954620 B   ---   --   ---xx   flac  0.4129  theblue2021-03-07d02t08.flac
     4:33.13       48187820 B   ---   --   ---xx   flac  0.4185  theblue2021-03-07d02t09.flac
     2:59.10       31599164 B   ---   --   ---xx   flac  0.4215  theblue2021-03-07d02t10.flac
     4:06.57       43528508 B   ---   --   ---xx   flac  0.3959  theblue2021-03-07d02t11.flac
     3:00.17       31792028 B   ---   --   ---xx   flac  0.3980  theblue2021-03-07d02t12.flac
     3:43.66       39492476 B   ---   --   ---xx   flac  0.4402  theblue2021-03-07d02t13.flac
     4:35.05       48521804 B   ---   --   ---xx   flac  0.3992  theblue2021-03-07d03t01.flac
     3:38.30       38525804 B   ---   --   ---xx   flac  0.4252  theblue2021-03-07d03t02.flac
     3:27.66       36670076 B   ---   --   ---xx   flac  0.4493  theblue2021-03-07d03t03.flac
     5:35.70       59258684 B   ---   --   ---xx   flac  0.3737  theblue2021-03-07d03t04.flac
     5:13.04       55222652 B   ---   --   ---xx   flac  0.3842  theblue2021-03-07d03t05.flac
     4:52.26       51569996 B   ---   --   ---xx   flac  0.4009  theblue2021-03-07d03t06.flac
     4:30.51       47747996 B   ---   --   ---xx   flac  0.4224  theblue2021-03-07d03t07.flac
     4:04.02       43046348 B   ---   --   ---xx   flac  0.4103  theblue2021-03-07d03t08.flac
     4:55.65       52190924 B   ---   --   ---xx   flac  0.4320  theblue2021-03-07d03t09.flac
     5:30.58       58348460 B   ---   --   ---xx   flac  0.3898  theblue2021-03-07d03t10.flac
     4:45.18       50316380 B   ---   --   ---xx   flac  0.4238  theblue2021-03-07d03t11.flac
     4:02.02       42693548 B   ---   --   ---xx   flac  0.4222  theblue2021-03-07d03t12.flac
   162:45.36     1722632388 B                            0.4025  (39 files)







More information about the bittorrent mailing list