[bittorrent] gr8FL dude & Token Rhyme Diane And John Rabson's House Roswell, Georgia 3/30/2021 (Schoeps CCM4V'S F

Automated Mailer noreply-bt.e at etree.org
Tue Apr 6 05:12:07 UTC 2021


Band:           Other
Torrent Name:   gr8FL dude & Token Rhyme Diane And John Rabson's House Roswell, Georgia 3/30/2021 (Schoeps CCM4V'S F
Uploaded by:    zmanatl
DB Link:        
Details:        http://bt.etree.org/details.php?id=612391

Contact the seeder at http://db.etree.org/zmanatl

If the link to this show does not work, it was probably removed for
being non-trade-friendly.

Description / text file:
-------------------------
gr8FL dude & Token Rhyme
Diane And John Rabson's House
Roswell, Georgia
3/30/2021

Source: Schoeps CCM4V'S>Lunatec V2>Sound Devices 722 (24/44.1)
FOB/DFC/KFC/ZFC/AARP 8' From Stage, 6 1/2' High
DSP: Sound Devices 722>Sound Forge 10.0>CD Wave>flac(16)
ID3 Tagged In Foobar 2000
Recorded By: Z-Man
Seeded By: Z-Man
A Team Dirty South Recording

Disc I 1st Set

01 Jack Straw
02 Brown-Eyed Women 
03 Seminole Wind
04 Dire Wolf
05 Fact Of Life
06 Hey Pockey Way

Disc II 2nd Set

01 *Dancin' In The Street > >
02 Deal
03 Music Bever Stopped
04 They Love Each Other
05 Ship Of Fools
06 Terrapin Station >
07 Playin; In The Band

* With China-Cat Sunflower Tease

Lewis Newmark - Guitar, Harmonica, And Vocals
Craig Neely - Guitar And Vocals
Diane Rabson - Keyboards And Vocals
Jim Roe - Acoustic Guitar And Vocals
Malcom Fields - Bass And Vocals 
Ryan Marcus - Drums 

gr8fl2021-03-30d01t01.flac:87d5f78f110f9585e22b61df07614fba
gr8fl2021-03-30d01t02.flac:ef6d033ea2f8cc0ffce0a497c1f343e4
gr8fl2021-03-30d01t03.flac:783f64e1e133c0feb36e4593f346739f
gr8fl2021-03-30d01t04.flac:22d3f3d502370d81af8669228043f287
gr8fl2021-03-30d01t05.flac:adfdf9b1b7c5e5b6247281a53c8235da
gr8fl2021-03-30d01t06.flac:b754dd3df07c1d1250fb7ae1af98350a
gr8fl2021-03-30d02t01.flac:817c00437057dec48d96ce5a7bf7083a
gr8fl2021-03-30d02t02.flac:0a62a8018aedc2fc618bcd27f35712ba
gr8fl2021-03-30d02t03.flac:ce2d052977da342ac60a8502c3a8b558
gr8fl2021-03-30d02t04.flac:73eac32e2097ef42eba353bdb173bbb9
gr8fl2021-03-30d02t05.flac:79f446ddc772a33264648448d70ecea0
gr8fl2021-03-30d02t06.flac:b853fc911da8c3bc3e45230703390c29
gr8fl2021-03-30d02t07.flac:b90c98ae741487209669e84c519460b4

 length     expanded size    cdr  WAVE problems  fmt   ratio  filename
     8:49.43       93416780 B   ---   --   ---xx   flac  0.5180  gr8fl2021-03-30d01t01.flac
     9:23.16       99350876 B   ---   --   ---xx   flac  0.5397  gr8fl2021-03-30d01t02.flac
     7:30.49       79495292 B   ---   --   ---xx   flac  0.5139  gr8fl2021-03-30d01t03.flac
     6:23.60       67702364 B   ---   --   ---xx   flac  0.5216  gr8fl2021-03-30d01t04.flac
     9:16.16       98116076 B   ---   --   ---xx   flac  0.4917  gr8fl2021-03-30d01t05.flac
     6:19.08       66874460 B   ---   --   ---xx   flac  0.5389  gr8fl2021-03-30d01t06.flac
    10:58.24      116127692 B   ---   --   ---xx   flac  0.5213  gr8fl2021-03-30d02t01.flac
     8:08.00       86083244 B   ---   --   ---xx   flac  0.5312  gr8fl2021-03-30d02t02.flac
     7:45.16       82063676 B   ---   --   ---xx   flac  0.5357  gr8fl2021-03-30d02t03.flac
     9:27.15      100054124 B   ---   --   ---xx   flac  0.4747  gr8fl2021-03-30d02t04.flac
     6:54.27       73093148 B   ---   --   ---xx   flac  0.4664  gr8fl2021-03-30d02t05.flac
    12:53.20      136404284 B   ---   --   ---xx   flac  0.5151  gr8fl2021-03-30d02t06.flac
    13:36.35      144024764 B   ---   --   ---xx   flac  0.5362  gr8fl2021-03-30d02t07.flac
   117:25.29     1242806780 B                            0.5164  (13 files)




More information about the bittorrent mailing list