[bittorrent] CBDB From The Earth Brewing Company Roswell, Georgia 4/3/2021 (Schoeps CCM4V'S FOB)

Automated Mailer noreply-bt.e at etree.org
Sun Apr 4 21:35:12 UTC 2021


Band:           Other
Torrent Name:   CBDB From The Earth Brewing Company Roswell, Georgia 4/3/2021 (Schoeps CCM4V'S FOB)
Uploaded by:    zmanatl
DB Link:        
Details:        http://bt.etree.org/details.php?id=612376

Contact the seeder at http://db.etree.org/zmanatl

If the link to this show does not work, it was probably removed for
being non-trade-friendly.

Description / text file:
-------------------------
CBDB
>From The Earth Brewing Company
Roswell, Georgia
4/3/2021

Source: Schoeps CCM4V'S>Lunatec V2>Sound Devices 722 (24/44.1)
FOB/DFC/KFC/ZFC/AARP 14' From Stage, 6 1/2' High
DSP: Sound Devices 722>Sound Forge 10.0>CD Wave>flac(16)
ID3 Tagged In Foobar 2000
Recorded By: Z-Man
Seeded By: Z-Man
A Team Dirty South Recording

Disc I 1st Set

01 Somewhere To Fall >
02 Slow Foxes 
03 Mumble Bull >
04 Back In Limbo
05 ?
06 Unaware >
07 Jet >
08 Unintentional Liar

Disc II 1st Set Con't

01 Bob And Weave
02 How Long 
03 *Patterns
04 Young Lust >
05 Mobile
06 Fine Line
Encore:
07 Banter
08 Feel So Far

* With 25 Or 6 To 4 Tease

Cy Simonton - Guitar And Vocals
Kris Gottlieb - Guitar And Vocals
Blake Gallent - Bass And Vocals 
Glenn Dillard - Keyboards, Saxophone, And Vocals 
Chris Potocik - Drums

cbdb2021-04-03d01t01.flac:42abeed584d1862e4f541f7689f47aba
cbdb2021-04-03d01t02.flac:b2b91419fd6459c8c4626ba31a44e15e
cbdb2021-04-03d01t03.flac:a3a72ffabcca1cbb0f8ec8cc5f790426
cbdb2021-04-03d01t04.flac:bd6f2426488b89ebc1f24deb7a08128a
cbdb2021-04-03d01t05.flac:dffa5c098e019ef0f3a7c734ac6263dd
cbdb2021-04-03d01t06.flac:6ca55f1ee7548d6477dad00811ff76ff
cbdb2021-04-03d01t07.flac:a4125c8cab8392fdd4b4304c935e4c18
cbdb2021-04-03d01t08.flac:59bc7fc67d7da2620ef85195f25d33ba
cbdb2021-04-03d02t01.flac:8cdbad7995f93a7133b079533b3bfad0
cbdb2021-04-03d02t02.flac:596607834f6af8c9b3d050046ce452e6
cbdb2021-04-03d02t03.flac:b9a9a2b99186b51771cc3421fd211da7
cbdb2021-04-03d02t04.flac:356619ef1f52ceddffea7517a1fb63b8
cbdb2021-04-03d02t05.flac:917b3dbaf51ed02d6caf8573fdcaa54b
cbdb2021-04-03d02t06.flac:3cc42cb84067ec322e87068cf54324b5
cbdb2021-04-03d02t07.flac:3989d12e363c0023e10d94676e3b61a4
cbdb2021-04-03d02t08.flac:d091b7125a375e62eea70f02c04083dc

length     expanded size    cdr  WAVE problems  fmt   ratio  filename
     4:49.36       51064316 B   ---   --   ---xx   flac  0.5171  cbdb2021-04-03d01t01.flac
    15:28.29      163767452 B   ---   --   ---xx   flac  0.5746  cbdb2021-04-03d01t02.flac
     9:09.07       96860108 B   ---   --   ---xx   flac  0.5285  cbdb2021-04-03d01t03.flac
     9:55.21      105007436 B   ---   --   ---xx   flac  0.5389  cbdb2021-04-03d01t04.flac
     4:03.21       42914636 B   ---   --   ---xx   flac  0.5951  cbdb2021-04-03d01t05.flac
     4:50.48       51268940 B   ---   --   ---xx   flac  0.5553  cbdb2021-04-03d01t06.flac
     4:10.55       44229404 B   ---   --   ---xx   flac  0.5865  cbdb2021-04-03d01t07.flac
    19:38.28      207865100 B   ---   --   ---xx   flac  0.5704  cbdb2021-04-03d01t08.flac
     6:10.49       65383292 B   ---   --   ---xx   flac  0.5830  cbdb2021-04-03d02t01.flac
    11:57.03      126485900 B   ---   --   ---xx   flac  0.5404  cbdb2021-04-03d02t02.flac
    14:48.13      156673820 B   ---   --   ---xx   flac  0.5386  cbdb2021-04-03d02t03.flac
     8:59.73       95251340 B   ---   --   ---xx   flac  0.5693  cbdb2021-04-03d02t04.flac
    13:10.08      139374860 B   ---   --   ---xx   flac  0.5675  cbdb2021-04-03d02t05.flac
    19:25.30      205576604 B   ---   --   ---xx   flac  0.5743  cbdb2021-04-03d02t06.flac
     1:01.44       10863932 B   ---   --   ---xx   flac  0.3421  cbdb2021-04-03d02t07.flac
     6:07.61       64882316 B   ---   --   ---xx   flac  0.5888  cbdb2021-04-03d02t08.flac
   153:46.01     1627469456 B                            0.5597  (16 files)







More information about the bittorrent mailing list