[bittorrent] Dr. Rock The Moonshadow Tavern Tucker, Georgia 4/2/2021 (Schoeps CCM4V'S FOB)

Automated Mailer noreply-bt.e at etree.org
Sun Apr 4 05:52:20 UTC 2021


Band:           Other
Torrent Name:   Dr. Rock The Moonshadow Tavern Tucker, Georgia 4/2/2021 (Schoeps CCM4V'S FOB)
Uploaded by:    zmanatl
DB Link:        
Details:        http://bt.etree.org/details.php?id=612374

Contact the seeder at http://db.etree.org/zmanatl

If the link to this show does not work, it was probably removed for
being non-trade-friendly.

Description / text file:
-------------------------
Dr. Rock
The Moonshadow Tavern
Tucker, Georgia
4/2/2021

Source: Schoeps CCM4V'S>Lunatec V2>Sound Devices 722 (24/44.1)
FOB/DFC/KFC/ZFC/AARP 8' From Stage, 6 1/2' High
DSP: Sound Devices 722>Sound Forge 10.0>CD Wave>flac(16)
ID3 Tagged In Foobar 2000
Recorded By: Z-Man
Seeded By: Z-Man
A Team Dirty South Recording

Disc I 1st Set

01 *The Rift >
02 * Roses Are Free
03 Did You See Me
04 Light Me Up
05 Buenos Tardes Amigo
06 Rick Improv Stay With Me
07 When You Wish Upon A Star
08 Fiesta

Disc II 1st Set Con't

01 A Tear For Eddy
02 #Fairies Wear Boots
03 ObJect
04 Transition 
05 The Stallion
06 *Put The Coke On My Dick >
07 *Young Lust 
08 *Blarney Stone 
09 The Grobe

Disc III 2nd Set

01 With My Own Bare Hands
02 What Deaner Was Talking About >
03 Ocean Man
04 Kim Smoltz
05 Piss Up A Rope 
06 She's Your Baby 
07 Chocolate Town
08 Stay Forever
09 Ice Castles >
10 The Final Alarm
Encore:
11 Buckingham Green >
12 Maggot Brain

* With Jack "Captain Trips" Boyanton
# First Time Played

Mike Heneghan - Guitar And Vocals
Mike Wilson - Guitar
Jeremy "Jerbo" Foti - Bass And Vocals 
Rick Shoemaker - Drums And Vocals 

drrock2021-04-02d01T01.flac:947dbc715da67669ba9760e1f05ef1df
drrock2021-04-02d01T02.flac:ef47d9cc0e2035e61d8ccf2643b6ced3
drrock2021-04-02d01T03.flac:88476f0c607342e5e8f081d48b1d5082
drrock2021-04-02d01T04.flac:0cf40336cc79ee3214e9f1ab123bad3e
drrock2021-04-02d01T05.flac:c9ef45a1967ec61e22dd69944d478c06
drrock2021-04-02d01T06.flac:3e059e908831bc0de4cbf35623caf781
drrock2021-04-02d01T07.flac:053e5812289bd07c6a162b745077e59b
drrock2021-04-02d01T08.flac:6edcd8fb3bf55b1e60cc2a242c12e3d0
drrock2021-04-02d02t01.flac:7f9672677319fb3d4b1afbc9768fa2df
drrock2021-04-02d02t02.flac:67eeca6d044f64dd37439ca4617b14e7
drrock2021-04-02d02t03.flac:188acb11795c4e540380cc5fcd7dc329
drrock2021-04-02d02t04.flac:ea4131df79a2b4171434081d63522e05
drrock2021-04-02d02t05.flac:561ce61559697dbc2ba66d248d00ff41
drrock2021-04-02d02t06.flac:363daf11d76ff9f743036c1a1de6d917
drrock2021-04-02d02t07.flac:dfb951aa00ddc1ddff40d1b4a2c19786
drrock2021-04-02d02t08.flac:b3b874735dda54e719bbc7e8b3118a28
drrock2021-04-02d02t09.flac:3d2603bfc2fb63501c110561854324e1
drrock2021-04-02d03t01.flac:e6689ad77a1ac03aa67d64c6439fc682
drrock2021-04-02d03t02.flac:91131020fb2a821af55b6c83e1dc2938
drrock2021-04-02d03t03.flac:69136732ab96bbf320e29453cfcf619a
drrock2021-04-02d03t04.flac:23a60f19ca9079871d0ce8768eb43dcb
drrock2021-04-02d03t05.flac:5accde8702f5c5144e10410f7f595d53
drrock2021-04-02d03t06.flac:a88ad771b850166d36475a6cacb34307
drrock2021-04-02d03t07.flac:7fa34769bc2fbc758c484a914c560597
drrock2021-04-02d03t08.flac:301846cd8b9317c195a84072a2a07521
drrock2021-04-02d03t09.flac:0fa3856341e0f3813b09660fc952bc2c
drrock2021-04-02d03t10.flac:83ed0fd587e94510114c02982516937a
drrock2021-04-02d03t11.flac:6e8d74b49722c7a1bccb7934bca8ca42
drrock2021-04-02d03t12.flac:d5cfb8314a6e7fd8e856c07f98f17e43

length     expanded size    cdr  WAVE problems  fmt   ratio  filename
     9:25.62       99811868 B   ---   --   ---xx   flac  0.4458  drrock2021-04-02d01T01.flac
     6:29.06       68633756 B   ---   --   ---xx   flac  0.5070  drrock2021-04-02d01T02.flac
     7:05.52       75092348 B   ---   --   ---xx   flac  0.4334  drrock2021-04-02d01T03.flac
     4:24.10       46593164 B   ---   --   ---xx   flac  0.4739  drrock2021-04-02d01T04.flac
     8:46.47       92896988 B   ---   --   ---xx   flac  0.4663  drrock2021-04-02d01T05.flac
     2:19.07       24536108 B   ---   --   ---xx   flac  0.3341  drrock2021-04-02d01T06.flac
     3:38.71       38622236 B   ---   --   ---xx   flac  0.4385  drrock2021-04-02d01T07.flac
     2:33.64       27139772 B   ---   --   ---xx   flac  0.4971  drrock2021-04-02d01T08.flac
     6:20.11       67057916 B   ---   --   ---xx   flac  0.4682  drrock2021-04-02d02t01.flac
     8:19.00       88023644 B   ---   --   ---xx   flac  0.4712  drrock2021-04-02d02t02.flac
     3:22.16       35670476 B   ---   --   ---xx   flac  0.4722  drrock2021-04-02d02t03.flac
     4:03.51       42985196 B   ---   --   ---xx   flac  0.4810  drrock2021-04-02d02t04.flac
     5:48.01       61389596 B   ---   --   ---xx   flac  0.4306  drrock2021-04-02d02t05.flac
     3:08.06       33177356 B   ---   --   ---xx   flac  0.5660  drrock2021-04-02d02t06.flac
     4:18.33       45588860 B   ---   --   ---xx   flac  0.5477  drrock2021-04-02d02t07.flac
     4:59.07       52760108 B   ---   --   ---xx   flac  0.4893  drrock2021-04-02d02t08.flac
     4:59.50       52861244 B   ---   --   ---xx   flac  0.4756  drrock2021-04-02d02t09.flac
     6:06.59       64701212 B   ---   --   ---xx   flac  0.4749  drrock2021-04-02d03t01.flac
     2:40.62       28369868 B   ---   --   ---xx   flac  0.5242  drrock2021-04-02d03t02.flac
     2:37.15       27730124 B   ---   --   ---xx   flac  0.5248  drrock2021-04-02d03t03.flac
     6:22.24       67441292 B   ---   --   ---xx   flac  0.4866  drrock2021-04-02d03t04.flac
     4:01.51       42632396 B   ---   --   ---xx   flac  0.4993  drrock2021-04-02d03t05.flac
     4:04.22       43093388 B   ---   --   ---xx   flac  0.5012  drrock2021-04-02d03t06.flac
     4:22.28       46282700 B   ---   --   ---xx   flac  0.4682  drrock2021-04-02d03t07.flac
     4:22.15       46252124 B   ---   --   ---xx   flac  0.4842  drrock2021-04-02d03t08.flac
     4:58.22       52618988 B   ---   --   ---xx   flac  0.4983  drrock2021-04-02d03t09.flac
     3:35.12       37954268 B   ---   --   ---xx   flac  0.4406  drrock2021-04-02d03t10.flac
     4:16.51       45278396 B   ---   --   ---xx   flac  0.4571  drrock2021-04-02d03t11.flac
     6:38.54       70334252 B   ---   --   ---xx   flac  0.5228  drrock2021-04-02d03t12.flac
   144:08.09     1525529644 B                            0.4770  (29 files)







More information about the bittorrent mailing list