[bittorrent] Tyler Neal Band The Northside Tavern Atlanta, Georgia 3/31/2021 (Schoeps CCM4V'S FOB)

Automated Mailer noreply-bt.e at etree.org
Thu Apr 1 17:37:07 UTC 2021


Band:           Other
Torrent Name:   Tyler Neal Band The Northside Tavern  Atlanta, Georgia 3/31/2021 (Schoeps CCM4V'S FOB)
Uploaded by:    zmanatl
DB Link:        
Details:        http://bt.etree.org/details.php?id=612348

Contact the seeder at http://db.etree.org/zmanatl

If the link to this show does not work, it was probably removed for
being non-trade-friendly.

Description / text file:
-------------------------
Tyler Neal Band
The Northside Tavern 
Atlanta, Georgia
3/31/2021

Source: Schoeps CCM4V'S>Lunatec V2>Sound Devices 722 (24/44.1)
FOB/DFC/KFC/ZFC/AARP 10' From Stage, 6 1/2' High
DSP: Sound Devices 722>Sound Forge 10.0>CD Wave>flac(16)
ID3 Tagged In Foobar 2000
Recorded By: Z-Man
Seeded By: Z-Man
A Team Dirty South Recording

Disc I 

01 Oye Como Va 
02 Down South In New Orleans
03 After Midnight >
04 Drive Your Funky Soul
05 Sittin' On The Dock Of The Bay
06 *Done Somebody Wrong
07 Brother John
08 Learning To Live Together >
09 Yes We Can Can

Disc II 

01 Can't Find My Way Home 
02 Honky CAt >
03 Boogie On Reggae Woman 
04 #Fire On The Bayou >
05 #Hey Pockey Way 
06 Nand Introductions
07 #Just Kissed My Baby
08 #They All Asked For You
09 Band Introductions/Outro

* With Harper (Hill's Hound Dog) Howling
# With Stax On Saxophone

Tyler Neal - Guitar And Vocals
Chad Mason - Keyboards And Vocals
Hill Roberts - Bass And Vocals 
Devonta "Kee" Tumage - Drums 

tyler2021-03-31d01t01.flac:34f79a5082ef24f82803d488d659329a
tyler2021-03-31d01t02.flac:420e0b354866570dc9edfa52283506e9
tyler2021-03-31d01t03.flac:95eb4844e6a0152b92e444a9ea239ed3
tyler2021-03-31d01t04.flac:3436b2f66e778b3167890951d54f9d50
tyler2021-03-31d01t05.flac:2f6488b0f2917fb6317f6088e1ec0f09
tyler2021-03-31d01t06.flac:5df3123385f9ec1ebbc06cfc75d29dfd
tyler2021-03-31d01t07.flac:a5942bf9ad67c7cff928ccf319e1f3e7
tyler2021-03-31d01t08.flac:f0f1b3f18cb3ac35b016716fbb86ed75
tyler2021-03-31d01t09.flac:7bb485721f5939134bc4996d9535dfcb
tyler2021-03-31d02t01.flac:7e60656ecc3c7034ef7aecdda0cb57d8
tyler2021-03-31d02t02.flac:fa795aeca7a38208a49141d5e4cbce54
tyler2021-03-31d02t03.flac:c7841da20236dca39351cebcb4a20b9f
tyler2021-03-31d02t04.flac:35b1eb3b8a617ff5267642159b0bc538
tyler2021-03-31d02t05.flac:55e6cb4c1eddc6d4339ef0846a33ae77
tyler2021-03-31d02t06.flac:462604e82641f289da526aab10a919cb
tyler2021-03-31d02t07.flac:3e40874b9e198563aa61ca844c23a607
tyler2021-03-31d02t08.flac:3ede272c4760adb1af981fd6c6a28016
tyler2021-03-31d02t09.flac:4e54960ceda13e1ba7c99a9e0c3ff40a

 length     expanded size    cdr  WAVE problems  fmt   ratio  filename
     5:40.22       60027788 B   ---   --   ---xx   flac  0.5239  tyler2021-03-31d01t01.flac
     5:37.08       59465660 B   ---   --   ---xx   flac  0.5032  tyler2021-03-31d01t02.flac
    10:15.72      108655388 B   ---   --   ---xx   flac  0.4960  tyler2021-03-31d01t03.flac
     5:11.10       54883964 B   ---   --   ---xx   flac  0.5136  tyler2021-03-31d01t04.flac
     4:27.46       47207036 B   ---   --   ---xx   flac  0.4119  tyler2021-03-31d01t05.flac
     6:10.46       65376236 B   ---   --   ---xx   flac  0.4945  tyler2021-03-31d01t06.flac
     5:46.43       61135580 B   ---   --   ---xx   flac  0.5291  tyler2021-03-31d01t07.flac
     7:53.61       83580716 B   ---   --   ---xx   flac  0.5086  tyler2021-03-31d01t08.flac
     7:32.05       79744604 B   ---   --   ---xx   flac  0.5381  tyler2021-03-31d01t09.flac
     6:01.03       63687500 B   ---   --   ---xx   flac  0.3938  tyler2021-03-31d02t01.flac
     7:25.69       78660332 B   ---   --   ---xx   flac  0.5342  tyler2021-03-31d02t02.flac
     5:49.54       61690652 B   ---   --   ---xx   flac  0.5119  tyler2021-03-31d02t03.flac
    10:55.48      115654940 B   ---   --   ---xx   flac  0.5513  tyler2021-03-31d02t04.flac
    11:58.55      126784604 B   ---   --   ---xx   flac  0.5040  tyler2021-03-31d02t05.flac
     1:12.17       12740828 B   ---   --   ---xx   flac  0.3553  tyler2021-03-31d02t06.flac
     7:22.39       78060572 B   ---   --   ---xx   flac  0.5418  tyler2021-03-31d02t07.flac
     3:12.01       33871196 B   ---   --   ---xx   flac  0.4620  tyler2021-03-31d02t08.flac
     0:54.67        9683228 B   ---   --   ---xx   flac  0.3574  tyler2021-03-31d02t09.flac
   113:27.66     1200910824 B                            0.5040  (18 files)







More information about the bittorrent mailing list