[bittorrent] gd1988-10-20.152172.UltraMatrix.sbd.cm.miller.t.flac16

Automated Mailer noreply-bt.e at etree.org
Thu Apr 1 02:24:43 UTC 2021


Band:           Grateful Dead
Torrent Name:   gd1988-10-20.152172.UltraMatrix.sbd.cm.miller.t.flac16
Uploaded by:    norm
DB Link:        
Details:        http://bt.etree.org/details.php?id=612347

Contact the seeder at http://db.etree.org/norm

If the link to this show does not work, it was probably removed for
being non-trade-friendly.

Description / text file:
-------------------------
Grateful Dead - October 20, 1988
The Summit - Houston, TX

Recording Info:
UltraMatrix SBD > Cassette Master (TDK MX-XG)

Transfer Info:
Cassette Master (Nakamichi CR-7A) > Tascam DA-3000 (DSF 1-bit/5.6MHz) >
Sound Forge 13 Pro (WAV 24-bit/96k) > Adobe Audition 2020 >
Izotope RX8 Advanced > Samplitude Pro X5 Suite > FLAC/24
(1 DVD FLAC)

Patch Info:
Schoeps CMC3/MK41 > PCM Master (shnid=141656) supplies:
Queen Jane Approximately (0:07 - 1:13)
I Need A Miracle (0:04 - 0:12)

All Transfers and Mastering by Charlie Miller
charliemiller87 at earthlink.net
March 23, 2021

Notes:
-- Recorded by Don Pearson and Dan Healy
-- The levels on Cold Rain And Snow were extremely low on the master causing tape hiss
-- It took dozens of hours to repair the flutter issues but it was worth the effort
-- This is far from perfect but still a lot better than what I started off with
-- Thanks to Ted Mattes and Scott Clugston for the patch source
-- 152119 24 > 16 @ 44.1

Set 1:
01 - Tuning
02 - Cold Rain And Snow >
03 - New Minglewood Blues
04 - Candyman
05 - Me And My Uncle >
06 - Mexicali Blues
07 - West L.A. Fadeaway >
08 - Queen Jane Approximately
09 - Stagger Lee >
10 - The Music Never Stopped

Set 2:
11 - China Cat Sunflower >
12 - I Know You Rider
13 - Playing In The Band >
14 - Built To Last >
15 - Drums >
16 - Space >
17 - I Need A Miracle >
18 - Dear Mr. Fantasy >
19 - Hey Jude >
20 - Turn On Your Lovelight

Encore:
21 - Encore Break
22 - Black Muddy River


SHNTOOL OUTPUT:
    length     expanded size    cdr  WAVE problems  fmt   ratio  filename
     1:15.14       13262972 B   ---   --   ---xx   flac  0.6237  01 Tuning.flac
     6:06.53       64687100 B   ---   --   ---xx   flac  0.6844  02 Cold Rain And Snow.flac
     8:39.66       91706876 B   ---   --   ---xx   flac  0.6396  03 New Minglewood Blues.flac
     8:03.11       85227116 B   ---   --   ---xx   flac  0.6100  04 Candyman.flac
     2:44.64       29080172 B   ---   --   ---xx   flac  0.6426  05 Me And My Uncle.flac
     6:30.55       68925404 B   ---   --   ---xx   flac  0.6114  06 Mexicali Blues.flac
     6:44.55       71395004 B   ---   --   ---xx   flac  0.6440  07 West LA Fadeaway.flac
     7:53.12       83465468 B   ---   --   ---xx   flac  0.6460  08 Queen Jane Approximately.flac
     5:00.49       53035292 B   ---   --   ---xx   flac  0.6780  09 Stagger Lee.flac
     7:44.48       81962540 B   ---   --   ---xx   flac  0.6651  10 The Music Never Stopped.flac
     6:09.70       65256284 B   ---   --   ---xx   flac  0.6389  11 China Cat Sunflower.flac
     5:15.17       55606028 B   ---   --   ---xx   flac  0.6521  12 I Know You Rider.flac
     7:53.07       83453708 B   ---   --   ---xx   flac  0.6659  13 Playing In The Band.flac
     6:19.57       66989708 B   ---   --   ---xx   flac  0.6450  14 Built To Last.flac
     9:45.37      103281068 B   ---   --   ---xx   flac  0.5648  15 Drums.flac
     7:36.04       80447852 B   ---   --   ---xx   flac  0.5981  16 Space.flac
     3:35.02       37930748 B   ---   --   ---xx   flac  0.6692  17 I Need A Miracle.flac
     6:24.22       67789388 B   ---   --   ---xx   flac  0.6564  18 Dear Mr Fantasy.flac
     3:23.48       35922140 B   ---   --   ---xx   flac  0.6154  19 Hey Jude.flac
     6:10.07       65284508 B   ---   --   ---xx   flac  0.6512  20 Turn On Your Lovelight.flac
     3:17.12       34779068 B   ---   --   ---xx   flac  0.5494  21 Encore Break.flac
     9:02.36       95693516 B   ---   --   ---xx   flac  0.5791  22 Black Muddy River.flac
   135:35.71     1435181960 B                            0.6317  (22 files)




More information about the bittorrent mailing list