[bittorrent] gd1991-04-05.152171.UltraMatrix.sbd.cm.miller.t.flac16

Automated Mailer noreply-bt.e at etree.org
Thu Apr 1 01:10:15 UTC 2021


Band:           Grateful Dead
Torrent Name:   gd1991-04-05.152171.UltraMatrix.sbd.cm.miller.t.flac16
Uploaded by:    norm
DB Link:        
Details:        http://bt.etree.org/details.php?id=612346

Contact the seeder at http://db.etree.org/norm

If the link to this show does not work, it was probably removed for
being non-trade-friendly.

Description / text file:
-------------------------
Grateful Dead - April 5, 1991
The Omni - Atlanta, GA

Recording Info:
UltraMatrix SBD > Cassette Master (TDK SA-X100)

Transfer Info:
Cassette Master (Nakamichi CR-7A) > Tascam DA-3000 (DSF 1-bit/5.6MHz) >
Sound Forge Pro 13 (WAV 24-bit/96k) > Adobe Audition 2020 > Samplitude Pro X5 Suite > FLAC/24
(1 DVD FLAC)

Patch Info:
(FOB) Schoeps CMC3/MK4 > DAT (shnid=149628) supplies:
Drums (9:34 - end of track)
Space (0:00 - 0:29)

All Transfers and Mastering by Charlie Miller
charliemiller87 at earthlink.net
March 19, 2021

Notes:
-- Recorded by Don Pearson and Dan Healy
-- Thanks to Dave Brotman, Jeff Metchick and Joe Noel for the patch source
-- 152099 24 > 16 @ 44.1

Set 1:
01 - Tuning
02 - Shakedown Street
03 - New Minglewood Blues
04 - Stagger Lee
05 - Mama Tried >
06 - Mexicali Blues
07 - Friend Of The Devil
08 - Queen Jane Approximately
09 - Deal

Set 2:
10 - Iko Iko
11 - Saint Of Circumstance >
12 - Terrapin Station >
13 - Stir It Up Jam >
14 - Drums >
15 - Space >
16 - The Other One >
17 - Wharf Rat >
18 - Throwing Stones >
19 - Not Fade Away

Encore:
20 - The Mighty Quinn (Quinn The Eskimo)


SHNTOOL OUTPUT:
    length     expanded size    cdr  WAVE problems  fmt   ratio  filename
     2:32.43       26913980 B   ---   --   ---xx   flac  0.4641  01 Tuning.flac
    16:57.01      179401196 B   ---   --   ---xx   flac  0.5814  02 Shakedown Street.flac
     9:27.29      100087052 B   ---   --   ---xx   flac  0.5599  03 New Minglewood Blues.flac
     8:13.15       87000524 B   ---   --   ---xx   flac  0.5605  04 Stagger Lee.flac
     2:34.33       27243260 B   ---   --   ---xx   flac  0.6089  05 Mama Tried.flac
     6:18.48       66792140 B   ---   --   ---xx   flac  0.5965  06 Mexicali Blues.flac
     8:29.21       89837036 B   ---   --   ---xx   flac  0.5786  07 Friend Of The Devil.flac
     6:24.48       67850540 B   ---   --   ---xx   flac  0.5972  08 Queen Jane Approximately.flac
    11:07.63      117807020 B   ---   --   ---xx   flac  0.6187  09 Deal.flac
    13:04.71      138464636 B   ---   --   ---xx   flac  0.5804  10 Iko Iko.flac
     7:30.72       79549388 B   ---   --   ---xx   flac  0.5886  11 Saint Of Circumstance.flac
    16:50.10      178187564 B   ---   --   ---xx   flac  0.5649  12 Terrapin Station.flac
     5:23.25       57036044 B   ---   --   ---xx   flac  0.5407  13 Stir It Up Jam.flac
    15:07.38      160084220 B   ---   --   ---xx   flac  0.4912  14 Drums.flac
    10:30.10      111155564 B   ---   --   ---xx   flac  0.5075  15 Space.flac
    11:49.40      125161724 B   ---   --   ---xx   flac  0.5575  16 The Other One.flac
    10:35.19      112058732 B   ---   --   ---xx   flac  0.5548  17 Wharf Rat.flac
     8:21.53       88501100 B   ---   --   ---xx   flac  0.5728  18 Throwing Stones.flac
    10:50.50      114777644 B   ---   --   ---xx   flac  0.5477  19 Not Fade Away.flac
     4:51.57       51466508 B   ---   --   ---xx   flac  0.5908  20 The Mighty Quinn (Quinn The Eskimo).flac
   187:00.71     1979375872 B                            0.5623  (20 files)




More information about the bittorrent mailing list