[bittorrent] Commander Cody Band Blind Willie's Atlanta, Georgia 2/17/2006 (New To Circulation)

Automated Mailer noreply-bt.e at etree.org
Sun May 31 20:14:05 UTC 2020


Band:           Commander Cody
Torrent Name:   Commander Cody Band Blind Willie's Atlanta, Georgia 2/17/2006 (New To Circulation)
Uploaded by:    zmanatl
DB Link:        
Details:        http://bt.etree.org/details.php?id=609808

Contact the seeder at http://db.etree.org/zmanatl

If the link to this show does not work, it was probably removed for
being non-trade-friendly.

Description / text file:
-------------------------
Commander Cody Band
Blind Willie's
Atlanta, Georgia
2/17/2006

Source: Core Sound Cardioid Mics>Sound Devices 722 (24/96)
FOB/DFC/KFC/ZFC/AARP 18' From Stage, 6 1/2' High
DSP: Sound Devices 722>Sound Forge 10.0>CD Wave>flac(16)
ID3 Tagged In Foobar 2000
Recorded By: Z-Man 
Seeded By: Z-Man
A Team Dirty South Recording

Disc I 1st Set

01 Greeting/Introduction
02 Too Much Fun
03 Riot In Cell Block #9
04 We Used To Ride
05 Smoke Smoke Smoke That Cigarette
06 Truck Drivin' Man 
07 What's The Matter Now
08 Don't Let Go >
09 Lightnin' Bar 

Disc II 2nd Set

01 House Of Blue Lights >
02 It Should Have Been Me >
03 They Kicked Me Out Of The Band
04 The Mess Around
05 Lookin' At The World Through A Windshield
06 Midnight Shift
07 Oh Mama Mama
08 Hot Rod Lincoln

Disc III Con't Set

01 Rock That Boogie
02 Midnight On The Strand
03 River City Jumpin'
04 Rockin' Over China 
05 Good Mornin' Judge
06 Beat Me Daddy Eight To The Bar >
07 Lost In The Ozone

George Frayne - Keyboards And Vocals
Mark Emerick - Guitar And Vocals
Rick Vaughn - Bass
Steve Barbuto - Drums And Vocals

commander2006-02-17d01t01.flac:b964f4e5080ac95b403d62f7fe4a8f3c
commander2006-02-17d01t02.flac:583872c89ee987f0bd1a5bde46251342
commander2006-02-17d01t03.flac:07415413b84a21dddaeb397ffe0a6021
commander2006-02-17d01t04.flac:e9c6dfc3b7f39c4cce30d99684ed86db
commander2006-02-17d01t05.flac:caea9101888df92046ddd5258673a5c6
commander2006-02-17d01t06.flac:71d99ef181e55ddc5a7b206695abd23f
commander2006-02-17d01t07.flac:c02fe4de40d1c730c51ee447b21b2f05
commander2006-02-17d01t08.flac:b0db24c9fcd8ea3f6300335c6db51ae9
commander2006-02-17d01t09.flac:ff3b9fda778dfea8bed5baf9117ab4b1
commander2006-02-17d02t01.flac:2619285aabdfdde14b5b322b51aaf152
commander2006-02-17d02t02.flac:2254148ef01ff5922cf04b107fd82e6f
commander2006-02-17d02t03.flac:01767597aba1c8ebb4bb4a285ed120b1
commander2006-02-17d02t04.flac:40a13643f070f4f9a840183189291efa
commander2006-02-17d02t05.flac:74e1b6b1e30d7a3d1f06a9758ae5ecf5
commander2006-02-17d02t06.flac:f61e6dfa39d995fbf2a7ca91e3f3e54b
commander2006-02-17d02t07.flac:1972f2ec8d7e17a0b31464fd4507e538
commander2006-02-17d02t08.flac:5ab0a1b4c78c77aad07ddae5a6c603a1
commander2006-02-17d03t01.flac:088f14d01f105a14452c83286469ca7a
commander2006-02-17d03t02.flac:f0c55c6802a3807cfe6bc0ba31943630
commander2006-02-17d03t03.flac:3b9013f8158e3fc31407527e5a6da44e
commander2006-02-17d03t04.flac:89d3744342070c699b763becb4671dfc
commander2006-02-17d03t05.flac:282cc8237fae29c9fcf0242ce4408242
commander2006-02-17d03t06.flac:05dae840f77424ab13d80234a3975c70
commander2006-02-17d03t07.flac:fc8efbf99fa00b078a235c0712553fa4

length     expanded size    cdr  WAVE problems  fmt   ratio  filename
     0:36.73        6522140 B   ---   --   ---xx   flac  0.3997  commander2006-02-17d01t01.flac
     5:09.09       54528812 B   ---   --   ---xx   flac  0.5755  commander2006-02-17d01t02.flac
     5:24.51       57273596 B   ---   --   ---xx   flac  0.5026  commander2006-02-17d01t03.flac
     4:56.24       52270892 B   ---   --   ---xx   flac  0.5604  commander2006-02-17d01t04.flac
     5:47.68       61370780 B   ---   --   ---xx   flac  0.5269  commander2006-02-17d01t05.flac
     3:56.47       41740988 B   ---   --   ---xx   flac  0.6008  commander2006-02-17d01t06.flac
     4:32.16       48018476 B   ---   --   ---xx   flac  0.5598  commander2006-02-17d01t07.flac
     3:44.25       39572444 B   ---   --   ---xx   flac  0.6021  commander2006-02-17d01t08.flac
     5:11.34       54940412 B   ---   --   ---xx   flac  0.5587  commander2006-02-17d01t09.flac
     4:52.01       51511196 B   ---   --   ---xx   flac  0.5616  commander2006-02-17d02t01.flac
     5:43.57       60639308 B   ---   --   ---xx   flac  0.5725  commander2006-02-17d02t02.flac
     3:50.43       40673180 B   ---   --   ---xx   flac  0.5326  commander2006-02-17d02t03.flac
     5:51.41       62012876 B   ---   --   ---xx   flac  0.5814  commander2006-02-17d02t04.flac
     4:17.27       45398348 B   ---   --   ---xx   flac  0.5800  commander2006-02-17d02t05.flac
     3:36.01       38104796 B   ---   --   ---xx   flac  0.5542  commander2006-02-17d02t06.flac
     6:33.71       69492236 B   ---   --   ---xx   flac  0.5681  commander2006-02-17d02t07.flac
     6:51.06       72514556 B   ---   --   ---xx   flac  0.5832  commander2006-02-17d02t08.flac
     6:06.15       64597724 B   ---   --   ---xx   flac  0.5437  commander2006-02-17d03t01.flac
     5:19.74       56445692 B   ---   --   ---xx   flac  0.5663  commander2006-02-17d03t02.flac
     4:17.70       45499484 B   ---   --   ---xx   flac  0.5661  commander2006-02-17d03t03.flac
     5:33.19       58785932 B   ---   --   ---xx   flac  0.5908  commander2006-02-17d03t04.flac
     5:50.65       61892924 B   ---   --   ---xx   flac  0.5293  commander2006-02-17d03t05.flac
     7:29.71       79370636 B   ---   --   ---xx   flac  0.5929  commander2006-02-17d03t06.flac
     4:48.47       50913788 B   ---   --   ---xx   flac  0.5886  commander2006-02-17d03t07.flac
   120:22.55     1274091216 B                            0.5642  (24 files)





More information about the bittorrent mailing list