[bittorrent] Annie And Rod Capps The Ark Ann Arbor, Michugan 2/2/2006 (New To Circulation)

Automated Mailer noreply-bt.e at etree.org
Sun May 31 17:13:19 UTC 2020


Band:           Other
Torrent Name:   Annie And Rod Capps The Ark Ann Arbor, Michugan 2/2/2006 (New To Circulation)
Uploaded by:    zmanatl
DB Link:        
Details:        http://bt.etree.org/details.php?id=609807

Contact the seeder at http://db.etree.org/zmanatl

If the link to this show does not work, it was probably removed for
being non-trade-friendly.

Description / text file:
-------------------------
Annie And Rod Capps
The Ark
Ann Arbor, Michugan
2/2/2006

Source: Core Sound Cardioid Mics>Sound Devices 722 (24/96)
FOB/DFC/KFC/ZFC Center Section, Row F, Seat, 3' High
DSP: Sound Devices 722>Sound Forge 10.0>CD Wave>flac(16)
ID3 Tagged In Foobar 2000
Recorded By: Z-Man 
Seeded By: Z-Man
A Team Dirty South Recording

Disc I 

01 Greeting/Introduction 
02 Not Today
03 Mirror Mirror
04 Pride
05 In This Town

Rod Capps - Guitar
Annie Capps - Vocals

annie2006-02-02d01t01.flac:c64ea854ca29d65330a1be30cf058c73
annie2006-02-02d01t02.flac:83d6a7b4d2c448a8ad2958560a70e0c1
annie2006-02-02d01t03.flac:cfc081e2091921974f61d519d5b07470
annie2006-02-02d01t04.flac:9de77942e565d72f40e52cd099d9ed4c
annie2006-02-02d01t05.flac:58c2a4a6da10a081ccf0204ebcf9ae23

  length     expanded size    cdr  WAVE problems  fmt   ratio  filename
     2:52.20       30387884 B   ---   --   ---xx   flac  0.2723  annie2006-02-02d01t01.flac
     4:16.19       45203132 B   ---   --   ---xx   flac  0.3205  annie2006-02-02d01t02.flac
     4:30.10       47651564 B   ---   --   ---xx   flac  0.3100  annie2006-02-02d01t03.flac
     4:39.44       49319132 B   ---   --   ---xx   flac  0.3155  annie2006-02-02d01t04.flac
     3:16.61       34717916 B   ---   --   ---xx   flac  0.3246  annie2006-02-02d01t05.flac
    19:35.04      207279628 B                            0.3105  (5 files)





More information about the bittorrent mailing list